<?xml version="1.0" standalone="no"?>
<!DOCTYPE svg PUBLIC "-//W3C//DTD SVG 1.1//EN" "http://www.w3.org/Graphics/SVG/1.1/DTD/svg11.dtd" >
<svg xmlns="http://www.w3.org/2000/svg" xmlns:xlink="http://www.w3.org/1999/xlink" version="1.1">
<metadata></metadata>
<defs>
<font id="flamabook" horiz-adv-x="1366" >
<font-face units-per-em="2048" ascent="1638" descent="-410" />
<missing-glyph horiz-adv-x="493" />
<glyph unicode="&#xfb01;" horiz-adv-x="1107" d="M57 905v121h183v176q0 141 71.5 216t206.5 75q60 0 113 -12v-133q-44 10 -101 10q-63 0 -101 -35.5t-38 -112.5v-184h234v-121h-234v-905h-151v905h-183zM807 0v1028h151v-1028h-151zM807 1251v224h151v-224h-151z" />
<glyph unicode="&#xfb02;" horiz-adv-x="1259" d="M57 905v121h183v176q0 141 71.5 216t206.5 75q60 0 113 -12v-133q-44 10 -101 10q-63 0 -101 -35.5t-38 -112.5v-184h234v-121h-234v-905h-151v905h-183zM809 252v1210h154v-1216q0 -57 32.5 -92t98.5 -35q26 0 114 10v-117q-74 -24 -166 -24q-56 0 -99 16.5t-67.5 42 t-40 61.5t-21 70.5t-5.5 73.5z" />
<glyph horiz-adv-x="0" />
<glyph horiz-adv-x="682" />
<glyph unicode=" "  horiz-adv-x="493" />
<glyph unicode="&#x09;" horiz-adv-x="493" />
<glyph unicode="&#xa0;" horiz-adv-x="493" />
<glyph unicode="!" horiz-adv-x="575" d="M203 0v240h168v-240h-168zM207 1001v459h164v-459l-33 -595h-96z" />
<glyph unicode="&#x22;" horiz-adv-x="765" d="M152 1260v204h147v-204l-25 -246h-96zM469 1260v204h145v-204l-24 -246h-96z" />
<glyph unicode="#" horiz-adv-x="1171" d="M43 393l18 101h215l86 485h-227l21 98h221l65 369h97l-62 -369h359l63 369h98l-61 -369h213l-14 -98h-215l-86 -485h221l-17 -101h-219l-69 -401h-101l68 401h-357l-67 -401h-100l67 401h-217zM377 494h356l88 485h-360z" />
<glyph unicode="$" horiz-adv-x="1101" d="M98 403l138 52q39 -103 121.5 -158t203.5 -55q123 0 203 55t80 149q0 47 -16.5 82.5t-49 59t-63.5 37.5t-76 28q-20 6 -114 32.5t-111 31.5q-131 37 -191.5 110.5t-60.5 194.5q0 135 94.5 225.5t245.5 104.5v207h121v-209q263 -26 348 -234l-131 -53q-83 160 -287 160 q-99 0 -170.5 -51.5t-71.5 -141.5q0 -69 44 -112t149 -72l215 -62q131 -37 202.5 -112t71.5 -213t-101 -233.5t-269 -110.5v-217h-121v213q-152 10 -259.5 88.5t-144.5 203.5z" />
<glyph unicode="%" horiz-adv-x="1564" d="M111 965v272q0 122 76.5 185t191.5 63q118 0 195 -62t77 -188v-279q0 -114 -80 -175.5t-194 -61.5q-120 0 -193 63.5t-73 182.5zM223 954q0 -67 39.5 -105t116.5 -38q76 0 119 41t43 102v295q0 62 -42 105t-118 43q-75 0 -116.5 -42t-41.5 -106v-295zM266 0l946 1468h109 l-944 -1468h-111zM913 219v270q0 124 77 189t192 65q119 0 196.5 -61t77.5 -186v-279q0 -115 -81 -177.5t-195 -62.5q-116 0 -191.5 61t-75.5 181zM1024 215q0 -68 40 -106.5t118 -38.5q77 0 119 41t42 104v293q0 63 -41.5 105t-119.5 42q-76 0 -117 -41t-41 -106v-293z" />
<glyph unicode="&#x26;" horiz-adv-x="1544" d="M139 381q0 63 20.5 123.5t63 119.5t117 108.5t174.5 80.5q-182 187 -182 340q0 48 12.5 93t44 90t78 78t121.5 54t168 21q173 0 271.5 -91t98.5 -220q0 -146 -100.5 -247.5t-265.5 -152.5l358 -387q69 125 111 264l131 -18q-41 -172 -146 -348l271 -289h-215l-172 180 q-193 -209 -494 -209q-212 0 -338.5 117t-126.5 293zM305 397q0 -131 92 -213t238 -82q110 0 210.5 44.5t166.5 127.5l-418 455q-140 -42 -214.5 -134.5t-74.5 -197.5zM506 1161q0 -41 22 -88t43 -74.5t60 -74.5q31 -34 53 -62q143 44 218 118.5t75 195.5q0 95 -65.5 145.5 t-153.5 50.5q-120 0 -186 -59t-66 -152z" />
<glyph unicode="'" horiz-adv-x="452" d="M152 1260v204h147v-204l-25 -246h-96z" />
<glyph unicode="(" horiz-adv-x="626" d="M188 565q0 237 67 486.5t206 441.5l86 -6q-120 -238 -174 -443.5t-54 -480.5q0 -505 232 -934l-90 -4q-91 114 -155.5 292.5t-91 342.5t-26.5 305z" />
<glyph unicode=")" horiz-adv-x="626" d="M80 -371q227 426 227 934q0 276 -53 482t-172 442l86 6q138 -192 204 -441.5t66 -486.5q0 -141 -26.5 -304.5t-90.5 -342.5t-155 -293z" />
<glyph unicode="*" horiz-adv-x="858" d="M84 1247l47 78l250 -143v278h96v-278l250 143l47 -78l-250 -147l168 -234l-82 -55l-180 252l-180 -252l-82 55l164 234z" />
<glyph unicode="+" horiz-adv-x="1148" d="M63 598v104h459v459h109v-459h454v-104h-454v-459h-109v459h-459z" />
<glyph unicode="," horiz-adv-x="454" d="M145 4v236h166v-232l-71 -246h-82l43 242h-56z" />
<glyph unicode="-" horiz-adv-x="731" d="M94 512v135h543v-135h-543z" />
<glyph unicode="." horiz-adv-x="454" d="M145 0v240h166v-240h-166z" />
<glyph unicode="/" horiz-adv-x="700" d="M-6 -297l541 1778h120l-538 -1778h-123z" />
<glyph unicode="0" horiz-adv-x="1193" d="M119 393v668q0 102 39 184.5t106.5 134.5t154 79.5t183.5 27.5q99 0 184 -27t150 -79t102 -134.5t37 -185.5v-664q0 -100 -39 -181.5t-105 -134t-151 -80.5t-180 -28q-98 0 -183.5 26.5t-152.5 77t-106 132t-39 184.5zM285 401q0 -126 84.5 -210.5t230.5 -84.5 t228.5 84.5t82.5 215.5v661q0 122 -83.5 205.5t-227.5 83.5q-145 0 -230 -85t-85 -212v-658z" />
<glyph unicode="1" horiz-adv-x="1024" d="M100 0v121h357v1196l-330 -55l-12 112l434 92h65v-1345h334v-121h-848z" />
<glyph unicode="2" horiz-adv-x="1093" d="M115 1079v54q0 170 118.5 263t313.5 93q201 0 309.5 -106t108.5 -279q0 -82 -21 -162.5t-50.5 -143.5t-85 -140.5t-99 -129.5t-117.5 -135l-234 -256v-2h635v-135h-846v104l410 469q119 135 179.5 258.5t60.5 278.5q0 111 -68 179.5t-199 68.5q-119 0 -192.5 -61.5 t-73.5 -168.5v-49h-149z" />
<glyph unicode="3" horiz-adv-x="1126" d="M123 303v64h153v-50q0 -53 24.5 -95t67 -67t94 -38t109.5 -13q125 0 209 80.5t84 216.5q0 70 -23.5 124t-57 83t-77.5 48t-77.5 24.5t-63.5 5.5h-170v135h166q124 0 196 69.5t72 203.5q0 69 -23 121.5t-62.5 82t-84.5 44t-94 14.5q-123 0 -199.5 -59.5t-76.5 -176.5v-30 h-152v53q0 152 117 248t315 96q110 0 193.5 -33.5t130.5 -88.5t69.5 -117.5t22.5 -129.5q0 -127 -58 -223.5t-179 -128.5v-6q123 -31 204.5 -124t81.5 -230q0 -134 -63.5 -233.5t-169 -149.5t-236.5 -50q-213 0 -327.5 96t-114.5 234z" />
<glyph unicode="4" horiz-adv-x="1181" d="M113 403v125l573 934h176l-581 -930h452v297l156 113v-410h203v-129h-203v-403h-156v403h-620z" />
<glyph unicode="5" horiz-adv-x="1120" d="M121 293v74h153v-48q0 -68 41 -117.5t104.5 -72.5t139.5 -23q46 0 87 10t80.5 35.5t68 64t46 100t17.5 139.5v51q0 142 -82 214.5t-205 72.5q-146 0 -272 -109l-145 21l45 757h747v-145h-616l-29 -494q149 105 330 105q73 0 142 -24.5t125.5 -70.5t91 -122.5t34.5 -171.5 v-90q0 -118 -35.5 -210t-98.5 -149.5t-147.5 -87t-185.5 -29.5q-107 0 -192 27.5t-137 73t-79.5 102t-27.5 117.5z" />
<glyph unicode="6" horiz-adv-x="1146" d="M121 395v674q0 192 131.5 305t333.5 113q195 0 309.5 -92t114.5 -250v-47h-154v28q0 109 -74.5 170.5t-199.5 61.5q-138 0 -216.5 -80t-78.5 -203v-332q60 87 160.5 137t207.5 50q158 0 264.5 -91.5t106.5 -238.5v-238q0 -183 -127.5 -286t-329.5 -103q-199 0 -323.5 117 t-124.5 305zM287 385q0 -115 78.5 -197t216.5 -82q135 0 209.5 71t74.5 179v199q0 66 -24.5 115.5t-65.5 76t-87 39.5t-97 13q-69 0 -138 -33.5t-118 -101t-49 -150.5v-129z" />
<glyph unicode="7" horiz-adv-x="1083" d="M115 1315v145h901v-117q-505 -542 -541 -1343h-176q20 375 165 731.5t355 583.5h-704z" />
<glyph unicode="8" horiz-adv-x="1132" d="M111 348v80q0 109 66 195.5t169 124.5q-100 30 -158.5 110.5t-58.5 177.5v72q0 121 63.5 209t160.5 129t212 41q87 0 164.5 -21.5t139.5 -64t98.5 -112.5t36.5 -159q2 -67 0 -102q0 -90 -61.5 -169t-162.5 -109q104 -30 173 -117t69 -201v-76q0 -177 -128.5 -280 t-330.5 -103t-327 100t-125 275zM274 358q0 -114 84.5 -186t206.5 -72q130 0 211.5 70.5t81.5 196.5v63q0 65 -26 115t-69 79t-93 43.5t-103 14.5q-76 0 -140.5 -25t-108.5 -83.5t-44 -141.5v-74zM287 1051q0 -81 45 -139t107 -82.5t130 -24.5q109 0 194 68.5t85 179.5v75 q0 48 -16.5 87.5t-44 66t-64.5 45t-78 27t-84 8.5q-109 0 -191.5 -65.5t-82.5 -176.5v-69z" />
<glyph unicode="9" horiz-adv-x="1150" d="M117 862v225q0 185 128 292.5t330 107.5q198 0 321.5 -116t123.5 -302v-678q0 -191 -132 -303.5t-333 -112.5q-196 0 -308 91.5t-112 250.5v48h152v-31q0 -109 74.5 -169.5t199.5 -60.5q138 0 216.5 80.5t78.5 204.5v332q-53 -99 -153 -146t-216 -47q-158 0 -264 93 t-106 241zM274 907q0 -64 25 -114t66 -78t88 -42t96 -14q69 0 138.5 34t119 102t49.5 151v131q0 115 -78 199t-217 84q-135 0 -211 -76.5t-76 -185.5v-191z" />
<glyph unicode=":" horiz-adv-x="454" d="M145 0v240h166v-240h-166zM145 750v237h166v-237h-166z" />
<glyph unicode=";" horiz-adv-x="454" d="M145 4v236h166v-232l-71 -246h-82l43 242h-56zM145 750v237h166v-237h-166z" />
<glyph unicode="&#x3c;" horiz-adv-x="1153" d="M94 608v86l912 416l47 -96l-805 -361l801 -374l-48 -95z" />
<glyph unicode="=" horiz-adv-x="1153" d="M61 401v105h1031v-105h-1031zM61 799v104h1031v-104h-1031z" />
<glyph unicode="&#x3e;" horiz-adv-x="1153" d="M100 1014l47 96l914 -416v-86l-907 -424l-48 95l801 374z" />
<glyph unicode="?" horiz-adv-x="1075" d="M129 1065v63q0 89 35 159t95 112.5t135 64t161 21.5q185 0 293 -96t108 -269q1 -64 -14.5 -120t-47.5 -103t-62.5 -80.5t-75.5 -73.5q-10 -10 -38.5 -36t-41 -38t-33.5 -36.5t-31 -43.5t-19.5 -46t-10.5 -56v-94h-144v96q5 87 41.5 148t108.5 133q13 13 43 42t44.5 44 t39 42t37 47.5t26 48t19.5 57t6 61.5q0 116 -71.5 181t-190.5 65q-46 0 -91 -12t-86 -36.5t-66.5 -70t-25.5 -106.5v-68h-143zM424 0v240h168v-240h-168z" />
<glyph unicode="@" horiz-adv-x="1961" d="M127 518q1 212 75 387t202 290.5t299 179t366 63.5q157 0 300 -51t250 -141t170.5 -222.5t63.5 -286.5q0 -134 -37 -245.5t-97.5 -185t-139.5 -124.5t-161 -73.5t-165 -22.5h-102l33 172h-6q-62 -95 -156 -146t-180 -51q-133 0 -211 69.5t-78 191.5q0 42 8 75l49 293 q31 175 144.5 271t265.5 96q93 0 168 -46t94 -134h6l31 167h125l-150 -870q63 3 124.5 25.5t120.5 69t103.5 111.5t71.5 159.5t27 205.5q0 131 -58 245t-154 190.5t-218.5 119.5t-251.5 43q-172 0 -321.5 -56t-261 -158.5t-176 -257.5t-64.5 -343q0 -141 39 -262t108 -208.5 t160 -148.5t200 -93q132 -39 297 -39q218 0 422 59l23 -82q-194 -73 -465 -73q-82 0 -178.5 14.5t-165.5 38.5q-120 41 -218 109t-174 164t-117 227t-40 284zM690 346q0 -81 56.5 -125.5t154.5 -44.5q105 0 200 88t118 219l28 181q6 30 6 55q0 113 -65.5 169t-161.5 56 q-109 0 -184.5 -63t-96.5 -179l-51 -296q-4 -28 -4 -60z" />
<glyph unicode="A" horiz-adv-x="1345" d="M53 0l547 1464h154l538 -1464h-174l-149 424h-596l-154 -424h-166zM420 563h502l-248 703h-2z" />
<glyph unicode="B" horiz-adv-x="1282" d="M162 0v1462h561q195 0 306.5 -93t111.5 -269q0 -118 -67 -208.5t-187 -125.5v-2q142 -25 219.5 -123.5t77.5 -232.5q0 -99 -37.5 -178.5t-100.5 -128.5t-141.5 -75t-165.5 -26h-577zM328 141h377q140 0 226.5 70.5t86.5 204.5q0 132 -86.5 198t-229.5 66h-374v-539z M328 819h350q131 0 216 65.5t85 190.5t-79.5 185.5t-211.5 60.5h-360v-502z" />
<glyph unicode="C" horiz-adv-x="1308" d="M127 463v506q0 153 72 271t198 181.5t285 63.5q146 0 263.5 -52.5t187 -153t69.5 -232.5v-72h-158v51q0 145 -101.5 228t-266.5 83t-275 -99t-110 -267v-490q0 -164 110.5 -262t284.5 -98q162 0 260 83.5t98 229.5v31h158v-53q0 -202 -146 -320.5t-370 -118.5 q-158 0 -283 55t-200.5 167.5t-75.5 267.5z" />
<glyph unicode="D" horiz-adv-x="1355" d="M162 0v1460h543q152 0 270 -56.5t187 -168.5t69 -264v-469q0 -115 -41.5 -210.5t-113 -159t-166.5 -98t-203 -34.5h-545zM328 147h368q165 0 267 95.5t102 249.5v479q0 154 -100.5 249t-272.5 95h-364v-1168z" />
<glyph unicode="E" horiz-adv-x="1218" d="M162 0v1462h938v-147h-772v-488h649v-145h-649v-535h776v-147h-942z" />
<glyph unicode="F" horiz-adv-x="1144" d="M162 0v1462h919v-147h-753v-494h622v-145h-622v-676h-166z" />
<glyph unicode="G" horiz-adv-x="1347" d="M131 463v508q0 231 156.5 374.5t396.5 143.5q147 0 264.5 -50.5t187.5 -149.5t70 -230v-70h-157v49q0 144 -101.5 223.5t-267.5 79.5q-165 0 -275 -99t-110 -269v-492q0 -164 110.5 -262t284.5 -98q163 0 264 83t101 228v164h-402v147h559v-331q0 -203 -145.5 -321 t-376.5 -118q-158 0 -283 55t-200.5 167.5t-75.5 267.5z" />
<glyph unicode="H" horiz-adv-x="1394" d="M162 0v1460h166v-633h739v633h166v-1460h-166v682h-739v-682h-166z" />
<glyph unicode="I" horiz-adv-x="489" d="M162 0v1460h166v-1460h-166z" />
<glyph unicode="J" horiz-adv-x="1191" d="M94 420v104h164v-80q0 -50 8.5 -93.5t31 -86.5t58 -73.5t94 -49t134.5 -18.5q71 0 128.5 27t93 72t54.5 101.5t19 118.5v1018h165v-1022q0 -94 -30.5 -176.5t-88.5 -147t-151 -102t-209 -37.5q-220 0 -345.5 113t-125.5 332z" />
<glyph unicode="K" horiz-adv-x="1302" d="M162 0v1462h166v-766l706 766h201l-537 -575l576 -887h-193l-491 766l-262 -268v-498h-166z" />
<glyph unicode="L" horiz-adv-x="1148" d="M162 0v1462h166v-1315h753v-147h-919z" />
<glyph unicode="M" horiz-adv-x="1640" d="M162 0v1460h203l458 -895h2l449 895h205v-1460h-160v1171h-4l-428 -833h-131l-428 831h-6v-1169h-160z" />
<glyph unicode="N" horiz-adv-x="1402" d="M162 0v1462h166l753 -1175h4v1175h158v-1462h-162l-759 1192h-5v-1192h-155z" />
<glyph unicode="O" d="M127 463v498q0 121 44.5 222t120.5 167t176.5 102.5t213.5 36.5q157 0 282 -59t200 -175.5t75 -271.5v-481q0 -160 -76 -282t-200.5 -184.5t-276.5 -62.5q-115 0 -216 32t-177.5 92.5t-121 155t-44.5 210.5zM291 481q0 -165 110 -262.5t285 -97.5q166 0 277.5 97.5 t111.5 270.5v500q0 163 -109.5 257.5t-289.5 94.5q-166 0 -275.5 -101t-109.5 -277v-482z" />
<glyph unicode="P" horiz-adv-x="1239" d="M162 0v1460h524q213 0 342 -119.5t129 -318.5q0 -191 -130 -317.5t-359 -126.5h-340v-578h-166zM328 719h303q171 0 266.5 77t95.5 226q0 140 -90.5 219.5t-236.5 79.5h-338v-602z" />
<glyph unicode="Q" d="M127 463v498q0 121 44.5 222t120.5 167t176.5 102.5t213.5 36.5q157 0 282 -59t200 -175.5t75 -271.5v-481q0 -138 -56 -247t-155 -179l242 -150l-111 -127l-291 201q-96 -27 -182 -27q-115 0 -216 32t-177.5 92.5t-121 155t-44.5 210.5zM291 481q0 -165 110 -262.5 t285 -97.5q166 0 277.5 97.5t111.5 270.5v500q0 163 -109.5 257.5t-289.5 94.5q-166 0 -275.5 -101t-109.5 -277v-482z" />
<glyph unicode="R" horiz-adv-x="1280" d="M162 0v1462h518q213 0 345 -116.5t132 -319.5q0 -157 -91 -273.5t-265 -148.5l424 -604h-185l-411 590h-301v-590h-166zM328 727h315q169 0 259.5 75t90.5 226q0 148 -93.5 221.5t-260.5 73.5h-311v-596z" />
<glyph unicode="S" horiz-adv-x="1220" d="M70 326l151 55q43 -123 149 -191.5t255 -68.5q150 0 249 70t99 192q0 109 -58 167t-167 93l-277 78q-161 45 -242.5 133.5t-81.5 239.5q0 178 133.5 285.5t335.5 107.5q115 0 210 -28.5t169 -91.5t111 -157l-143 -57q-48 95 -136.5 145t-212.5 50q-123 0 -213 -62.5 t-90 -177.5q0 -88 57.5 -148t184.5 -98l278 -78q304 -83 304 -385q0 -188 -143.5 -306t-375.5 -118q-204 0 -350 91t-196 260z" />
<glyph unicode="T" horiz-adv-x="1218" d="M53 1319v141h1112v-141h-473v-1319h-164v1319h-475z" />
<glyph unicode="U" horiz-adv-x="1380" d="M150 477v983h165v-954q0 -188 102.5 -284.5t274.5 -96.5q180 0 280 98q96 94 95 263v14v960h164v-973q1 -238 -147.5 -375t-395.5 -137q-87 0 -165 18t-146.5 57.5t-118.5 97.5t-79 142t-29 187z" />
<glyph unicode="V" horiz-adv-x="1198" d="M25 1460h170l401 -1239h2l408 1239h170l-498 -1468h-164z" />
<glyph unicode="W" horiz-adv-x="1783" d="M49 1460h170l289 -1206h2l311 1206h148l305 -1206h4l293 1206h164l-379 -1468h-156l-305 1210h-4l-305 -1210h-160z" />
<glyph unicode="X" horiz-adv-x="1163" d="M27 0l462 764l-421 696h188l330 -571l340 571h178l-426 -700l463 -760h-191l-368 623l-373 -623h-182z" />
<glyph unicode="Y" horiz-adv-x="1191" d="M43 1460h182l375 -692l371 692h180l-475 -854v-606h-160v608z" />
<glyph unicode="Z" horiz-adv-x="1142" d="M68 0v131l774 1190h-744v141h951v-127l-773 -1188h781v-147h-989z" />
<glyph unicode="[" horiz-adv-x="743" d="M274 -391v1958h410v-92h-276v-1772h276v-94h-410z" />
<glyph unicode="\" horiz-adv-x="700" d="M55 1487h117l533 -1735h-121z" />
<glyph unicode="]" horiz-adv-x="743" d="M59 -297h277v1772h-277v92h410v-1958h-410v94z" />
<glyph unicode="^" horiz-adv-x="1024" d="M217 328l223 880h162l205 -880h-135l-154 739l-168 -739h-133z" />
<glyph unicode="_" horiz-adv-x="1024" d="M0 -147h1024v-105h-1024v105z" />
<glyph unicode="`" horiz-adv-x="632" d="M94 1520h178l195 -328h-125z" />
<glyph unicode="a" horiz-adv-x="1052" d="M92 276q0 80 34 142t90.5 97.5t121.5 53t135 17.5h293v143q0 201 -246 201q-102 0 -173 -39.5t-71 -120.5v-35h-139v31q0 75 33 132t89.5 89.5t123.5 48t143 15.5q82 0 149.5 -15.5t124.5 -49t88.5 -94.5t31.5 -144v-498q0 -44 5 -132t9 -118h-150q-2 14 -4 43t-3.5 61.5 t-2.5 40.5h-4q-59 -97 -142.5 -132.5t-193.5 -35.5q-149 0 -245.5 80t-96.5 219zM244 285q0 -90 66 -138.5t165 -48.5q148 0 219.5 74.5t71.5 202.5v98h-266q-256 0 -256 -188z" />
<glyph unicode="b" horiz-adv-x="1097" d="M150 0v1460h151v-600h6q49 96 137.5 143.5t180.5 47.5q166 0 269 -99.5t103 -267.5v-313q0 -100 -33 -178t-89.5 -125t-126.5 -71t-148 -24q-97 0 -181.5 52.5t-117.5 138.5h-6v-164h-145zM301 395q0 -130 82.5 -210.5t200.5 -80.5q104 0 181 64.5t77 187.5v328 q0 104 -71 170t-191 66q-50 0 -99 -21.5t-89.5 -60t-65.5 -99t-25 -131.5v-213z" />
<glyph unicode="c" horiz-adv-x="1003" d="M100 389v229q0 201 117.5 316t308.5 115q180 0 293 -96t113 -261v-26h-148v34q0 92 -67.5 157t-188.5 65q-126 0 -198 -79t-72 -210v-248q0 -129 69 -205t203 -76q121 0 187.5 64t66.5 156v28h148v-22q0 -164 -111 -260.5t-291 -96.5q-195 0 -312.5 110t-117.5 306z" />
<glyph unicode="d" horiz-adv-x="1099" d="M100 340v315q0 80 21.5 146.5t58.5 112t87.5 77t107.5 46t119 14.5q97 0 180.5 -51.5t116.5 -137.5h6v598h151v-1460h-147v180h-4q-49 -100 -141.5 -153.5t-180.5 -53.5q-168 0 -271.5 99.5t-103.5 267.5zM254 346q0 -105 72 -172.5t192 -67.5q108 0 193.5 84.5 t85.5 225.5v215q0 130 -82 210.5t-201 80.5q-49 0 -94 -15t-82.5 -44.5t-60.5 -79.5t-23 -113v-324z" />
<glyph unicode="e" horiz-adv-x="1044" d="M100 391v217q0 206 124.5 323.5t316.5 117.5q178 0 292.5 -106t114.5 -298v-162h-690v-106q0 -126 80 -199.5t215 -73.5q156 0 260 132l117 -70q-124 -193 -387 -193q-198 0 -320.5 107t-122.5 311zM258 590h539v59q0 121 -70 197t-195 76q-123 0 -198.5 -81t-75.5 -206 v-45z" />
<glyph unicode="f" horiz-adv-x="659" d="M57 905v121h183v176q0 141 71.5 216t206.5 75q60 0 113 -12v-133q-44 10 -101 10q-63 0 -101 -35.5t-38 -112.5v-184h234v-121h-234v-905h-151v905h-183z" />
<glyph unicode="g" horiz-adv-x="1089" d="M102 377v278q0 96 32 173t85.5 124.5t121 73t142.5 25.5q95 0 186 -50t128 -143v170h147v-1005q0 -123 -48 -221t-151.5 -159t-248.5 -61q-120 0 -221.5 49.5t-153.5 145.5l139 59q89 -131 248 -131q133 0 211 80t78 217v197q-50 -95 -135 -141t-185 -46 q-174 0 -274.5 98t-100.5 267zM258 375q0 -106 70 -173t192 -67q52 0 100 18t88 53t64.5 94.5t24.5 135.5v205q0 127 -84 203t-197 76q-104 0 -181 -65t-77 -189v-291z" />
<glyph unicode="h" horiz-adv-x="1107" d="M150 0v1462h151v-612h6q51 97 140.5 149t191.5 52q159 0 244.5 -93.5t85.5 -246.5v-711h-154v653q0 133 -58.5 199t-164.5 66q-122 0 -206.5 -85t-84.5 -227v-606h-151z" />
<glyph unicode="i" horiz-adv-x="450" d="M150 0v1028h151v-1028h-151zM150 1237v223h151v-223h-151z" />
<glyph unicode="j" horiz-adv-x="491" d="M-45 -279q46 -4 74 -4q81 0 116 42.5t35 127.5v1141h154v-1153q0 -289 -299 -289q-44 0 -80 4v131zM182 1237v223h154v-223h-154z" />
<glyph unicode="k" horiz-adv-x="1017" d="M150 0v1462h153v-940l461 506h184l-356 -381l385 -647h-172l-318 541l-184 -195v-346h-153z" />
<glyph unicode="l" horiz-adv-x="602" d="M152 252v1210h153v-1216q0 -57 33 -92t100 -35q20 0 113 10v-117q-76 -24 -164 -24q-57 0 -100 16.5t-68 42t-40.5 61.5t-21 70.5t-5.5 73.5z" />
<glyph unicode="m" horiz-adv-x="1757" d="M147 0v1028h148v-178h4q53 98 142.5 149.5t197.5 51.5q113 0 186 -56.5t105 -148.5h2q55 98 147 151.5t205 53.5q150 0 240 -88t90 -238v-725h-152v653q0 130 -57 197.5t-166 67.5q-116 0 -197 -84.5t-84 -210.5v-623h-151v657q-3 127 -58.5 194t-164.5 67 q-68 0 -131 -32.5t-107.5 -102.5t-44.5 -162v-621h-154z" />
<glyph unicode="n" horiz-adv-x="1107" d="M150 0v1028h147v-178h4q53 97 143 149t195 52q159 0 244.5 -93.5t85.5 -246.5v-711h-154v653q0 133 -58.5 199t-164.5 66q-122 0 -206.5 -85t-84.5 -227v-606h-151z" />
<glyph unicode="o" horiz-adv-x="1058" d="M100 371v266q0 194 123 303t305 109q194 0 313.5 -109t119.5 -301v-252q0 -130 -58.5 -225.5t-154 -142t-213.5 -46.5q-195 0 -315 104t-120 294zM254 375q0 -124 73.5 -197.5t207.5 -73.5q129 0 199.5 70.5t70.5 206.5v272q0 121 -71.5 194t-205.5 73q-128 0 -201 -72.5 t-73 -202.5v-270z" />
<glyph unicode="p" horiz-adv-x="1097" d="M150 -397v1425h147v-168h4q52 95 142 143t182 48q166 0 269 -98.5t103 -266.5v-315q0 -100 -32.5 -178t-88 -125t-124 -71t-146.5 -24q-98 0 -182 52.5t-117 138.5h-6v-561h-151zM301 395q0 -130 82.5 -210.5t200.5 -80.5q104 0 181 64.5t77 187.5v324q0 105 -71.5 172.5 t-190.5 67.5q-107 0 -193 -83.5t-86 -222.5v-219z" />
<glyph unicode="q" horiz-adv-x="1097" d="M100 340v315q0 80 21.5 146.5t58.5 112t87.5 77t107.5 46t119 14.5q98 0 182 -51.5t117 -137.5h4v166h151v-1425h-149v569h-4q-50 -97 -141 -148t-179 -51q-168 0 -271.5 99.5t-103.5 267.5zM254 346q0 -105 72 -172.5t192 -67.5q108 0 193.5 84.5t85.5 225.5v215 q0 130 -82 210.5t-201 80.5q-49 0 -94 -15t-82.5 -44.5t-60.5 -79.5t-23 -113v-324z" />
<glyph unicode="r" horiz-adv-x="770" d="M141 0v1028h150v-207h4q39 78 102.5 130t129.5 72.5t137 20.5q40 0 75 -6v-143q-35 6 -94 6q-152 0 -249.5 -89.5t-100.5 -250.5v-561h-154z" />
<glyph unicode="s" horiz-adv-x="985" d="M76 139l104 86q124 -127 312 -127q100 0 174.5 49.5t74.5 135.5q0 81 -49 116.5t-164 57.5l-118 24q-289 57 -289 264q0 135 101.5 221.5t266.5 86.5q247 0 359 -129l-105 -80q-104 90 -262 90q-94 0 -152.5 -46t-58.5 -120q0 -68 54 -102t170 -58l153 -33 q252 -55 252 -266q0 -81 -35 -146t-93 -105t-129.5 -61.5t-147.5 -21.5q-286 0 -418 164z" />
<glyph unicode="t" horiz-adv-x="712" d="M41 903v123h178v322h152v-322h284v-123h-284v-649q0 -73 36 -103t109 -30q62 0 150 18v-131q-82 -26 -191 -26q-53 0 -97.5 12t-81 38t-57 72.5t-20.5 110.5v688h-178z" />
<glyph unicode="u" horiz-adv-x="1101" d="M139 317v711h154v-653q0 -132 59.5 -197t165.5 -65q120 0 204.5 85t84.5 226v604h151v-1028h-147v178h-4q-53 -99 -142.5 -151t-195.5 -52q-159 0 -244.5 95t-85.5 247z" />
<glyph unicode="v" horiz-adv-x="970" d="M37 1028h164l284 -838h2l291 838h156l-375 -1032h-151z" />
<glyph unicode="w" horiz-adv-x="1538" d="M43 1028h160l241 -835h2l256 835h142l246 -833h4l245 833h160l-330 -1032h-151l-246 833h-4l-252 -833h-151z" />
<glyph unicode="x" horiz-adv-x="970" d="M35 0l362 537l-334 491h179l245 -377l248 377h174l-334 -489l361 -539h-174l-277 416l-276 -416h-174z" />
<glyph unicode="y" horiz-adv-x="989" d="M43 1028h166l297 -813h4l285 813h155l-442 -1202q-87 -242 -322 -242q-54 0 -125 15v131q73 -17 127 -17q61 0 105.5 34.5t66.5 94.5l70 183z" />
<glyph unicode="z" horiz-adv-x="933" d="M74 0v115l579 788h-555v125h752v-117l-584 -784h594v-127h-786z" />
<glyph unicode="{" horiz-adv-x="665" d="M100 571v107q55 9 72.5 29.5t17.5 68.5v512q0 84 41.5 128t112.5 44h246v-98h-225q-39 0 -39 -45v-516q0 -132 -101 -172v-8q57 -23 79 -60t22 -112v-682q0 -46 39 -46h225v-98h-246q-71 0 -112.5 44t-41.5 128v660q0 58 -20 84t-70 32z" />
<glyph unicode="|" horiz-adv-x="665" d="M270 -109v1594h127v-1594h-127z" />
<glyph unicode="}" horiz-adv-x="665" d="M76 -279h225q41 0 41 46v682q0 75 21 112t77 60v8q-98 40 -98 172v516q0 45 -41 45h-225v98h248q71 0 112 -44t41 -128v-512q0 -48 17.5 -68.5t72.5 -29.5v-107q-51 -6 -70.5 -31.5t-19.5 -84.5v-660q0 -84 -41 -128t-112 -44h-248v98z" />
<glyph unicode="~" horiz-adv-x="1153" d="M63 553q16 90 63 145.5t126 55.5q56 0 325.5 -37t327.5 -37q21 0 36.5 6.5t26.5 22.5t17.5 29.5t15.5 39.5l89 -18q-18 -92 -64.5 -147.5t-120.5 -55.5q-59 0 -332 37t-325 37q-20 0 -34 -5.5t-25 -21t-16.5 -27.5t-16.5 -40z" />
<glyph unicode="&#xa1;" horiz-adv-x="575" d="M205 100l33 600h100l31 -600v-458h-164v458zM205 866v238h166v-238h-166z" />
<glyph unicode="&#xa2;" horiz-adv-x="1085" d="M150 438v295q0 174 95.5 277.5t256.5 117.5v211h131v-213q148 -15 232.5 -100t84.5 -221v-47h-145v45q0 82 -64 142.5t-180 60.5q-121 0 -190.5 -74t-69.5 -197v-291q0 -120 67.5 -192t196.5 -72q115 0 177.5 60.5t62.5 142.5v47h145v-47q0 -139 -84.5 -225t-232.5 -101 v-209h-131v209q-165 12 -258.5 111t-93.5 270z" />
<glyph unicode="&#xa3;" horiz-adv-x="1189" d="M119 0v133h168v553h-152v102h152v308q0 104 34 182t92.5 122.5t129 65.5t151.5 21q171 0 273 -90.5t102 -253.5v-58h-156v66q0 97 -64.5 151t-168.5 54q-103 0 -170.5 -61.5t-67.5 -180.5v-326h443v-102h-443v-553h662l-33 -133h-952z" />
<glyph unicode="&#xa4;" horiz-adv-x="903" d="M92 432l94 96q-59 86 -59 189q0 99 59 184q-4 4 -25 24.5t-45 44.5l-24 25l76 76l92 -90q89 61 191 61q107 0 190 -61l92 90l78 -76l-92 -92q61 -86 61 -188q0 -100 -63 -189l92 -94l-76 -76l-94 95q-82 -60 -184 -60q-105 0 -193 60l-94 -95zM244 713q0 -90 58 -154.5 t151 -64.5q100 0 154.5 62t54.5 161q0 95 -58 160t-149 65q-100 0 -155.5 -63.5t-55.5 -165.5z" />
<glyph unicode="&#xa5;" horiz-adv-x="1200" d="M43 1460h182l373 -655l373 655h180l-465 -788h434v-109h-444v-563h-160v563h-440v109h430z" />
<glyph unicode="&#xa6;" horiz-adv-x="905" d="M401 -100v743h103v-743h-103zM401 788v674h103v-674h-103z" />
<glyph unicode="&#xa7;" horiz-adv-x="1161" d="M180 109v65h131v-39q0 -97 76.5 -150t204.5 -53q125 0 199.5 55t74.5 142q0 42 -13 71.5t-46 50.5t-52.5 29.5t-67.5 24.5q-7 3 -11 4l-201 60q-262 82 -262 280q0 80 43.5 150.5t134.5 115.5q-95 46 -136.5 103t-41.5 145q0 130 99.5 214.5t287.5 84.5q179 0 281 -78 t102 -217v-55h-129v51q0 83 -68.5 133t-189.5 50q-110 0 -178 -45.5t-68 -131.5q0 -62 46.5 -99t123.5 -64l211 -80q57 -20 98 -41t82.5 -53t63.5 -77t22 -102q0 -83 -43.5 -151t-132.5 -111q186 -73 183 -246q0 -144 -114 -236.5t-308 -92.5q-74 0 -142 15.5t-128 47.5 t-96 91.5t-36 138.5zM352 657q0 -43 30.5 -78t66 -53t77.5 -30l162 -50q82 25 128 74t46 115q0 59 -45 96t-117 62l-184 61q-69 -24 -116.5 -76t-47.5 -121z" />
<glyph unicode="&#xa8;" horiz-adv-x="913" d="M186 1196v211h152v-211h-152zM575 1196v211h152v-211h-152z" />
<glyph unicode="&#xa9;" horiz-adv-x="1898" d="M125 711q0 171 60.5 323.5t167 265t260.5 178.5t333 66q149 0 280.5 -42.5t231 -119t171 -180t108.5 -229t37 -262.5q0 -171 -58 -324t-163 -267.5t-262.5 -181.5t-344.5 -67q-191 0 -347 64t-259 177t-159 266.5t-56 332.5zM229 711q0 -175 56.5 -319t154 -239 t229.5 -146.5t283 -51.5q148 0 279 54t228.5 151t154.5 240t57 311q0 173 -59 316.5t-159.5 237t-231 144.5t-275.5 51q-147 0 -277.5 -52.5t-228 -147t-154.5 -237t-57 -312.5zM543 549v301q0 188 111 295.5t296 107.5q181 0 287 -88.5t106 -242.5v-54h-139v50 q0 90 -60.5 152.5t-189.5 62.5q-132 0 -198 -80t-66 -207v-295q0 -129 63.5 -204t198.5 -75q67 0 118 19t79.5 50.5t42.5 67.5t14 74v54h137v-50q0 -155 -107 -245t-286 -90q-189 0 -298 101.5t-109 295.5z" />
<glyph unicode="&#xaa;" horiz-adv-x="804" d="M121 958q0 54 21.5 94.5t52.5 63.5t74 37t79 18.5t74 4.5h131v86q0 66 -38 100.5t-105 34.5q-64 0 -107 -29t-43 -86v-27h-108v27q0 99 77 149t193 50q108 0 180 -51t72 -156v-330q0 -102 6 -160h-113l-6 97q-38 -59 -97 -86t-120 -27q-93 0 -158 49t-65 141zM154 553 v106h524v-106h-524zM242 973q0 -55 38.5 -85t96.5 -30q69 0 121.5 42t52.5 112v90h-127q-38 0 -66 -4.5t-56.5 -16.5t-44 -39.5t-15.5 -68.5z" />
<glyph unicode="&#xab;" horiz-adv-x="1142" d="M98 549l396 389l75 -70l-280 -319l282 -320l-75 -67zM571 549l394 389l77 -70l-280 -319l282 -320l-77 -67z" />
<glyph unicode="&#xac;" horiz-adv-x="1275" d="M96 586v106h1051v-516h-121v410h-930z" />
<glyph unicode="&#xad;" horiz-adv-x="731" d="M94 512v135h543v-135h-543z" />
<glyph unicode="&#xae;" horiz-adv-x="1034" d="M96 1075q0 186 121.5 311t308.5 125q194 0 314.5 -123.5t120.5 -312.5q0 -181 -122 -306.5t-313 -125.5q-195 0 -312.5 124.5t-117.5 307.5zM172 1075q0 -165 104.5 -264.5t249.5 -99.5t252 100.5t107 263.5q0 169 -104 272t-255 103t-252.5 -102.5t-101.5 -272.5z M360 827v510h197q78 0 128 -41t50 -112q0 -56 -31.5 -96.5t-89.5 -53.5q5 -7 65 -96.5t77 -110.5h-90l-136 199h-88v-199h-82zM442 1087h99q53 0 81.5 24t28.5 69q0 44 -29.5 67t-82.5 23h-97v-183z" />
<glyph unicode="&#xaf;" horiz-adv-x="827" d="M145 1233v131h537v-131h-537z" />
<glyph unicode="&#xb0;" horiz-adv-x="733" d="M143 1268q0 93 65 159t159 66q97 0 162 -65t65 -156q0 -93 -66.5 -157t-160.5 -64q-97 0 -160.5 62.5t-63.5 154.5zM223 1268q0 -60 42 -102t102 -42q61 0 104 42t43 102q0 62 -42.5 106.5t-104.5 44.5q-60 0 -102 -44t-42 -107z" />
<glyph unicode="&#xb1;" horiz-adv-x="1153" d="M74 758v106h448v451h111v-451h446v-106h-446v-451h-111v451h-448zM82 29v108h987v-108h-987z" />
<glyph unicode="&#xb2;" horiz-adv-x="706" d="M96 1366v35q0 102 70.5 156.5t187.5 54.5q119 0 182.5 -62t63.5 -164q0 -43 -13 -87.5t-29.5 -77t-50 -77t-54.5 -69t-64 -71.5l-113 -121v-4h338v-101h-503v82l247 277q117 134 117 247v5q0 57 -33.5 92t-99.5 35q-60 0 -95.5 -33t-35.5 -88v-29h-115z" />
<glyph unicode="&#xb3;" horiz-adv-x="714" d="M88 950v35h117v-27q0 -54 42.5 -81t106.5 -27q62 0 104 40t42 107q0 42 -17.5 73t-44.5 45t-51 20t-45 6h-80v90h80q65 0 102 34.5t37 104.5q0 65 -38.5 98t-94.5 33q-61 0 -99 -30t-38 -87v-20h-115v31q0 92 68.5 148t187.5 56q122 0 185 -62.5t63 -150.5 q0 -69 -32.5 -121.5t-98.5 -70.5v-4q69 -18 113.5 -70t44.5 -127q0 -115 -82 -178t-199 -63q-125 0 -191.5 55t-66.5 143z" />
<glyph unicode="&#xb4;" horiz-adv-x="632" d="M156 1192l194 330h178l-249 -330h-123z" />
<glyph unicode="&#xb5;" horiz-adv-x="1077" d="M145 -365v1401h162v-710q0 -95 58.5 -149t154.5 -54q93 0 169.5 73.5t76.5 182.5v657h162v-725q0 -118 86 -135v-182q-97 11 -151 65t-66 123q-86 -207 -289 -207q-75 0 -133.5 33.5t-89.5 93.5l-11 -2l41 -454z" />
<glyph unicode="&#xb6;" horiz-adv-x="1271" d="M150 965q0 126 49 238.5t142.5 184.5t211.5 72h606v-96h-151v-1548h-107v1548h-260v-1548h-104v661q-101 6 -177.5 48t-121 110.5t-66.5 151t-22 178.5z" />
<glyph unicode="&#xb7;" horiz-adv-x="454" d="M145 750v237h166v-237h-166z" />
<glyph unicode="&#xb8;" horiz-adv-x="583" d="M61 -293q103 -39 189 -39q68 0 101.5 18t33.5 62q0 68 -166 78l-43 2l37 213h80l-25 -135q242 0 242 -154q0 -77 -65 -128.5t-183 -51.5q-108 0 -201 39v96z" />
<glyph unicode="&#xb9;" horiz-adv-x="643" d="M90 778v88h184v615l-172 -27l-8 84l246 55h57v-727h172v-88h-479z" />
<glyph unicode="&#xba;" horiz-adv-x="811" d="M127 1038v166q0 133 77 205t202 72q132 0 207 -70.5t75 -206.5v-166q0 -132 -77.5 -201t-204.5 -69q-131 0 -205 68t-74 202zM145 553v106h527v-106h-527zM248 1036q0 -176 158 -176q159 0 159 180v170q0 174 -157 174q-82 0 -121 -48.5t-39 -131.5v-168z" />
<glyph unicode="&#xbb;" horiz-adv-x="1126" d="M100 231l283 320l-283 317l80 70l391 -387l-393 -389zM573 231l283 320l-283 317l80 70l391 -387l-393 -389z" />
<glyph unicode="&#xbc;" horiz-adv-x="1701" d="M90 645v88h184v615l-172 -27l-8 84l246 55h57v-727h172v-88h-479zM375 -4l805 1466h106l-801 -1466h-110zM989 209v92l324 518h137l-332 -514h230v158l116 78v-236h107v-96h-107v-209h-116v209h-359z" />
<glyph unicode="&#xbd;" horiz-adv-x="1701" d="M90 645v88h184v615l-172 -27l-8 84l246 55h57v-727h172v-88h-479zM375 -4l805 1466h106l-801 -1466h-110zM1040 588v35q0 102 70.5 156.5t187.5 54.5q119 0 182.5 -62t63.5 -164q0 -54 -16 -104t-52 -102.5t-63 -85.5t-80 -91l-112 -121v-4h338v-100h-504v82l248 276 q116 133 116 248v4q0 57 -33.5 92t-99.5 35q-60 0 -95.5 -33t-35.5 -88v-28h-115z" />
<glyph unicode="&#xbe;" horiz-adv-x="1701" d="M88 817v35h117v-27q0 -54 42.5 -81t106.5 -27q62 0 104 40t42 107q0 42 -17.5 73t-44.5 45t-51 20t-45 6h-80v90h80q65 0 102 34.5t37 104.5q0 65 -38.5 98t-94.5 33q-61 0 -99 -30t-38 -87v-20h-115v31q0 92 68.5 148t187.5 56q122 0 185 -62.5t63 -150.5 q0 -69 -32.5 -121.5t-98.5 -70.5v-4q69 -18 113.5 -70t44.5 -127q0 -115 -82 -178.5t-199 -63.5q-125 0 -191.5 55.5t-66.5 143.5zM395 -4l805 1466h107l-801 -1466h-111zM989 209v92l324 518h137l-332 -514h230v158l116 78v-236h107v-96h-107v-209h-116v209h-359z" />
<glyph unicode="&#xbf;" horiz-adv-x="1075" d="M129 -16q0 29 4.5 57t9.5 50t19 49t21.5 43t29 43t29 37.5t35.5 38.5t34.5 34t38 36t35.5 34q56 50 86.5 98t34.5 112v93h143v-95q-5 -87 -41 -147.5t-108 -132.5q-11 -11 -43 -41t-45 -44t-38.5 -41.5t-37 -47.5t-26 -48.5t-20 -58t-5.5 -61.5q0 -117 71 -181.5 t189 -64.5q47 0 91.5 11.5t85.5 36t66 69.5t25 106v70h143v-64q0 -89 -34.5 -159t-94.5 -112t-135.5 -63.5t-161.5 -21.5q-186 0 -293.5 95t-107.5 270zM496 866v238h168v-238h-168z" />
<glyph unicode="&#xc0;" horiz-adv-x="1345" d="M53 0l547 1464h154l538 -1464h-174l-149 424h-596l-154 -424h-166zM373 1937h178l194 -327h-124zM420 563h502l-248 703h-2z" />
<glyph unicode="&#xc1;" horiz-adv-x="1345" d="M53 0l547 1464h154l538 -1464h-174l-149 424h-596l-154 -424h-166zM420 563h502l-248 703h-2zM618 1604l195 329h178l-250 -329h-123z" />
<glyph unicode="&#xc2;" horiz-adv-x="1345" d="M53 0l547 1464h154l538 -1464h-174l-149 424h-596l-154 -424h-166zM397 1599l201 328h147l193 -328h-145l-119 230l-133 -230h-144zM420 563h502l-248 703h-2z" />
<glyph unicode="&#xc3;" horiz-adv-x="1345" d="M53 0l547 1464h154l538 -1464h-174l-149 424h-596l-154 -424h-166zM311 1630q16 91 68 148t135 57q57 0 160 -36t155 -36q41 0 62 25t33 72l102 -23q-18 -93 -69.5 -149t-127.5 -56q-57 0 -162 36t-159 36q-34 0 -53.5 -22t-38.5 -72zM420 563h502l-248 703h-2z" />
<glyph unicode="&#xc4;" horiz-adv-x="1345" d="M53 0l547 1464h154l538 -1464h-174l-149 424h-596l-154 -424h-166zM403 1616v211h152v-211h-152zM420 563h502l-248 703h-2zM793 1616v211h151v-211h-151z" />
<glyph unicode="&#xc5;" horiz-adv-x="1345" d="M53 0l547 1464h154l538 -1464h-174l-149 424h-596l-154 -424h-166zM420 563h502l-248 703h-2zM487 1765q0 78 53.5 133.5t131.5 55.5q89 0 140.5 -50t51.5 -128q0 -80 -54.5 -134.5t-133.5 -54.5q-89 0 -139 51.5t-50 126.5zM567 1767q0 -52 32 -81t77 -29t76.5 30 t31.5 82q0 53 -30 84t-82 31q-46 0 -75.5 -33t-29.5 -84z" />
<glyph unicode="&#xc6;" horiz-adv-x="2017" d="M43 0l823 1462h1032v-145h-772v-490h652v-145h-652v-535h777v-147h-942v414h-510l-234 -414h-174zM518 553h443v778z" />
<glyph unicode="&#xc7;" horiz-adv-x="1308" d="M127 463v506q0 153 72 271t198 181.5t285 63.5q146 0 263.5 -52.5t187 -153t69.5 -232.5v-72h-158v51q0 145 -101.5 228t-266.5 83t-275 -99t-110 -267v-490q0 -164 110.5 -262t284.5 -98q162 0 260 83.5t98 229.5v31h158v-53q0 -200 -143 -318t-363 -121l-12 -67 q242 0 242 -154q0 -77 -65 -128.5t-183 -51.5q-108 0 -201 39v96q103 -39 189 -39q68 0 101.5 18t33.5 62q0 68 -166 78l-43 2l24 149q-218 18 -353.5 144.5t-135.5 341.5z" />
<glyph unicode="&#xc8;" horiz-adv-x="1218" d="M162 0v1462h938v-147h-772v-488h649v-145h-649v-535h776v-147h-942zM379 1933h178l195 -327h-125z" />
<glyph unicode="&#xc9;" horiz-adv-x="1218" d="M162 0v1462h938v-147h-772v-488h649v-145h-649v-535h776v-147h-942zM537 1606l194 329h178l-250 -329h-122z" />
<glyph unicode="&#xca;" horiz-adv-x="1218" d="M162 0v1462h938v-147h-772v-488h649v-145h-649v-535h776v-147h-942zM371 1595l200 328h148l192 -328h-145l-119 230l-133 -230h-143z" />
<glyph unicode="&#xcb;" horiz-adv-x="1218" d="M162 0v1462h938v-147h-772v-488h649v-145h-649v-535h776v-147h-942zM379 1608v211h151v-211h-151zM768 1608v211h152v-211h-152z" />
<glyph unicode="&#xcc;" horiz-adv-x="489" d="M-63 1929h178l194 -327h-125zM162 0v1460h166v-1460h-166z" />
<glyph unicode="&#xcd;" horiz-adv-x="489" d="M162 0v1460h166v-1460h-166zM188 1602l195 329h178l-250 -329h-123z" />
<glyph unicode="&#xce;" horiz-adv-x="489" d="M-25 1606l201 327h148l192 -327h-145l-119 229l-133 -229h-144zM162 0v1460h166v-1460h-166z" />
<glyph unicode="&#xcf;" horiz-adv-x="489" d="M-25 1614v211h152v-211h-152zM162 0v1460h166v-1460h-166zM365 1614v211h151v-211h-151z" />
<glyph unicode="&#xd0;" horiz-adv-x="1400" d="M61 698v117h144v645h543q152 0 270 -56.5t187 -168.5t69 -264v-469q0 -115 -41.5 -210.5t-113 -159t-166.5 -98t-203 -34.5h-545v698h-144zM371 147h368q165 0 267 95.5t102 249.5v479q0 154 -100.5 249t-272.5 95h-364v-500h422v-117h-422v-551z" />
<glyph unicode="&#xd1;" horiz-adv-x="1402" d="M162 0v1462h166l753 -1175h4v1175h158v-1462h-162l-759 1192h-5v-1192h-155zM360 1624q16 91 68 148t135 57q57 0 160.5 -36t155.5 -36q41 0 61.5 24.5t32.5 71.5l102 -22q-18 -94 -69 -149.5t-127 -55.5q-57 0 -162.5 36t-159.5 36q-34 0 -53.5 -22t-38.5 -72z" />
<glyph unicode="&#xd2;" d="M127 463v498q0 121 44.5 222t120.5 167t176.5 102.5t213.5 36.5q157 0 282 -59t200 -175.5t75 -271.5v-481q0 -160 -76 -282t-200.5 -184.5t-276.5 -62.5q-115 0 -216 32t-177.5 92.5t-121 155t-44.5 210.5zM291 481q0 -165 110 -262.5t285 -97.5q166 0 277.5 97.5 t111.5 270.5v500q0 163 -109.5 257.5t-289.5 94.5q-166 0 -275.5 -101t-109.5 -277v-482zM399 1927h179l194 -328h-125z" />
<glyph unicode="&#xd3;" d="M127 463v498q0 121 44.5 222t120.5 167t176.5 102.5t213.5 36.5q157 0 282 -59t200 -175.5t75 -271.5v-481q0 -160 -76 -282t-200.5 -184.5t-276.5 -62.5q-115 0 -216 32t-177.5 92.5t-121 155t-44.5 210.5zM291 481q0 -165 110 -262.5t285 -97.5q166 0 277.5 97.5 t111.5 270.5v500q0 163 -109.5 257.5t-289.5 94.5q-166 0 -275.5 -101t-109.5 -277v-482zM612 1612l195 330h178l-250 -330h-123z" />
<glyph unicode="&#xd4;" d="M127 463v498q0 121 44.5 222t120.5 167t176.5 102.5t213.5 36.5q157 0 282 -59t200 -175.5t75 -271.5v-481q0 -160 -76 -282t-200.5 -184.5t-276.5 -62.5q-115 0 -216 32t-177.5 92.5t-121 155t-44.5 210.5zM291 481q0 -165 110 -262.5t285 -97.5q166 0 277.5 97.5 t111.5 270.5v500q0 163 -109.5 257.5t-289.5 94.5q-166 0 -275.5 -101t-109.5 -277v-482zM412 1599l200 328h148l192 -328h-145l-119 230l-133 -230h-143z" />
<glyph unicode="&#xd5;" d="M127 463v498q0 121 44.5 222t120.5 167t176.5 102.5t213.5 36.5q157 0 282 -59t200 -175.5t75 -271.5v-481q0 -160 -76 -282t-200.5 -184.5t-276.5 -62.5q-115 0 -216 32t-177.5 92.5t-121 155t-44.5 210.5zM291 481q0 -165 110 -262.5t285 -97.5q166 0 277.5 97.5 t111.5 270.5v500q0 163 -109.5 257.5t-289.5 94.5q-166 0 -275.5 -101t-109.5 -277v-482zM317 1632q16 91 68 148t135 57q57 0 160.5 -36t155.5 -36q41 0 61.5 25t32.5 72l102 -23q-18 -94 -69 -149.5t-127 -55.5q-57 0 -162.5 36t-159.5 36q-34 0 -53.5 -22t-38.5 -72z" />
<glyph unicode="&#xd6;" d="M127 463v498q0 121 44.5 222t120.5 167t176.5 102.5t213.5 36.5q157 0 282 -59t200 -175.5t75 -271.5v-481q0 -160 -76 -282t-200.5 -184.5t-276.5 -62.5q-115 0 -216 32t-177.5 92.5t-121 155t-44.5 210.5zM291 481q0 -165 110 -262.5t285 -97.5q166 0 277.5 97.5 t111.5 270.5v500q0 163 -109.5 257.5t-289.5 94.5q-166 0 -275.5 -101t-109.5 -277v-482zM412 1606v211h151v-211h-151zM801 1606v211h151v-211h-151z" />
<glyph unicode="&#xd7;" horiz-adv-x="1146" d="M125 276l373 375l-373 377l78 78l370 -377l371 375l76 -78l-369 -373l377 -366l-78 -80l-379 368l-370 -374z" />
<glyph unicode="&#xd8;" d="M127 463v498q0 121 44.5 222t120.5 167t176.5 102.5t213.5 36.5q213 0 362 -109l97 156l82 -53l-105 -170q121 -134 121 -330v-481q0 -160 -76 -282t-200.5 -184.5t-276.5 -62.5q-192 0 -336 84l-94 -155l-84 51l98 162q-143 133 -143 348zM291 481q0 -132 69 -219 l605 985q-111 94 -289 94q-166 0 -275.5 -101t-109.5 -277v-482zM434 193q101 -72 252 -72q166 0 277.5 97.5t111.5 270.5v500q0 102 -45 178z" />
<glyph unicode="&#xd9;" horiz-adv-x="1380" d="M150 477v983h165v-954q0 -188 102.5 -284.5t274.5 -96.5q180 0 279.5 98t95.5 277v960h164v-973q1 -238 -147.5 -375t-395.5 -137q-87 0 -165 18t-146.5 57.5t-118.5 97.5t-79 142t-29 187zM424 1929h178l195 -327h-125z" />
<glyph unicode="&#xda;" horiz-adv-x="1380" d="M150 477v983h165v-954q0 -188 102.5 -284.5t274.5 -96.5q180 0 279.5 98t95.5 277v960h164v-973q1 -238 -147.5 -375t-395.5 -137q-87 0 -165 18t-146.5 57.5t-118.5 97.5t-79 142t-29 187zM647 1604l195 329h178l-250 -329h-123z" />
<glyph unicode="&#xdb;" horiz-adv-x="1380" d="M150 477v983h165v-954q0 -188 102.5 -284.5t274.5 -96.5q180 0 279.5 98t95.5 277v960h164v-973q1 -238 -147.5 -375t-395.5 -137q-87 0 -165 18t-146.5 57.5t-118.5 97.5t-79 142t-29 187zM438 1595l201 328h147l193 -328h-145l-119 230l-133 -230h-144z" />
<glyph unicode="&#xdc;" horiz-adv-x="1380" d="M150 477v983h165v-954q0 -188 102.5 -284.5t274.5 -96.5q180 0 279.5 98t95.5 277v960h164v-973q1 -238 -147.5 -375t-395.5 -137q-87 0 -165 18t-146.5 57.5t-118.5 97.5t-79 142t-29 187zM426 1606v211h152v-211h-152zM815 1606v211h152v-211h-152z" />
<glyph unicode="&#xdd;" horiz-adv-x="1191" d="M43 1460h182l375 -692l371 692h180l-475 -854v-606h-160v608zM555 1602l195 329h178l-250 -329h-123z" />
<glyph unicode="&#xde;" horiz-adv-x="1247" d="M162 0v1460h166v-258h358q213 0 342 -120t129 -320q0 -92 -32.5 -172t-93 -140.5t-154 -95.5t-209.5 -35h-340v-319h-166zM328 459h303q171 0 266.5 77t95.5 228q0 139 -90.5 218t-236.5 79h-338v-602z" />
<glyph unicode="&#xdf;" horiz-adv-x="1308" d="M57 905v121h174v57q0 180 127 294t338 114q208 0 320 -100t112 -265q0 -119 -64.5 -218t-189.5 -146v-4q95 -21 165.5 -62.5t110 -94.5t58.5 -110.5t19 -119.5q0 -115 -57.5 -206.5t-154 -140t-210.5 -47.5q-161 0 -246 33l19 133q109 -28 204 -28q126 0 203.5 69.5 t77.5 192.5q0 65 -25.5 117t-66 84.5t-94 54t-105.5 30.5t-104 9v114h55q115 42 181.5 132.5t66.5 193.5q0 118 -75.5 182t-207.5 64q-95 0 -164.5 -41t-101 -100t-31.5 -125v-1092h-160v905h-174z" />
<glyph unicode="&#xe0;" horiz-adv-x="1052" d="M92 276q0 80 34 142t90.5 97.5t121.5 53t135 17.5h293v143q0 201 -246 201q-102 0 -173 -39.5t-71 -120.5v-35h-139v31q0 75 33 132t89.5 89.5t123.5 48t143 15.5q82 0 149.5 -15.5t124.5 -49t88.5 -94.5t31.5 -144v-498q0 -44 5 -132t9 -118h-150q-2 14 -4 43t-3.5 61.5 t-2.5 40.5h-4q-59 -97 -142.5 -132.5t-193.5 -35.5q-149 0 -245.5 80t-96.5 219zM236 1520h178l194 -328h-125zM244 285q0 -90 66 -138.5t165 -48.5q148 0 219.5 74.5t71.5 202.5v98h-266q-256 0 -256 -188z" />
<glyph unicode="&#xe1;" horiz-adv-x="1052" d="M92 276q0 80 34 142t90.5 97.5t121.5 53t135 17.5h293v143q0 201 -246 201q-102 0 -173 -39.5t-71 -120.5v-35h-139v31q0 75 33 132t89.5 89.5t123.5 48t143 15.5q82 0 149.5 -15.5t124.5 -49t88.5 -94.5t31.5 -144v-498q0 -44 5 -132t9 -118h-150q-2 14 -4 43t-3.5 61.5 t-2.5 40.5h-4q-59 -97 -142.5 -132.5t-193.5 -35.5q-149 0 -245.5 80t-96.5 219zM244 285q0 -90 66 -138.5t165 -48.5q148 0 219.5 74.5t71.5 202.5v98h-266q-256 0 -256 -188zM446 1192l195 330h178l-250 -330h-123z" />
<glyph unicode="&#xe2;" horiz-adv-x="1052" d="M92 276q0 80 34 142t90.5 97.5t121.5 53t135 17.5h293v143q0 201 -246 201q-102 0 -173 -39.5t-71 -120.5v-35h-139v31q0 75 33 132t89.5 89.5t123.5 48t143 15.5q82 0 149.5 -15.5t124.5 -49t88.5 -94.5t31.5 -144v-498q0 -44 5 -132t9 -118h-150q-2 14 -4 43t-3.5 61.5 t-2.5 40.5h-4q-59 -97 -142.5 -132.5t-193.5 -35.5q-149 0 -245.5 80t-96.5 219zM244 285q0 -90 66 -138.5t165 -48.5q148 0 219.5 74.5t71.5 202.5v98h-266q-256 0 -256 -188zM256 1188l201 328h147l193 -328h-146l-119 229l-133 -229h-143z" />
<glyph unicode="&#xe3;" horiz-adv-x="1052" d="M92 276q0 80 34 142t90.5 97.5t121.5 53t135 17.5h293v143q0 201 -246 201q-102 0 -173 -39.5t-71 -120.5v-35h-139v31q0 75 33 132t89.5 89.5t123.5 48t143 15.5q82 0 149.5 -15.5t124.5 -49t88.5 -94.5t31.5 -144v-498q0 -44 5 -132t9 -118h-150q-2 14 -4 43t-3.5 61.5 t-2.5 40.5h-4q-59 -97 -142.5 -132.5t-193.5 -35.5q-149 0 -245.5 80t-96.5 219zM160 1212q16 91 68 148t134 57q57 0 160.5 -35.5t155.5 -35.5q41 0 61.5 24.5t32.5 71.5l102 -23q-18 -94 -69 -149.5t-127 -55.5q-57 0 -162.5 36t-159.5 36q-34 0 -53.5 -22t-38.5 -72z M244 285q0 -90 66 -138.5t165 -48.5q148 0 219.5 74.5t71.5 202.5v98h-266q-256 0 -256 -188z" />
<glyph unicode="&#xe4;" horiz-adv-x="1052" d="M92 276q0 80 34 142t90.5 97.5t121.5 53t135 17.5h293v143q0 201 -246 201q-102 0 -173 -39.5t-71 -120.5v-35h-139v31q0 75 33 132t89.5 89.5t123.5 48t143 15.5q82 0 149.5 -15.5t124.5 -49t88.5 -94.5t31.5 -144v-498q0 -44 5 -132t9 -118h-150q-2 14 -4 43t-3.5 61.5 t-2.5 40.5h-4q-59 -97 -142.5 -132.5t-193.5 -35.5q-149 0 -245.5 80t-96.5 219zM244 285q0 -90 66 -138.5t165 -48.5q148 0 219.5 74.5t71.5 202.5v98h-266q-256 0 -256 -188zM254 1196v211h152v-211h-152zM643 1196v211h152v-211h-152z" />
<glyph unicode="&#xe5;" horiz-adv-x="1052" d="M92 276q0 80 34 142t90.5 97.5t121.5 53t135 17.5h293v143q0 201 -246 201q-102 0 -173 -39.5t-71 -120.5v-35h-139v31q0 75 33 132t89.5 89.5t123.5 48t143 15.5q82 0 149.5 -15.5t124.5 -49t88.5 -94.5t31.5 -144v-498q0 -44 5 -132t9 -118h-150q-2 14 -4 43t-3.5 61.5 t-2.5 40.5h-4q-59 -97 -142.5 -132.5t-193.5 -35.5q-149 0 -245.5 80t-96.5 219zM244 285q0 -90 66 -138.5t165 -48.5q148 0 219.5 74.5t71.5 202.5v98h-266q-256 0 -256 -188zM342 1346q0 78 53 133t131 55q89 0 141 -50t52 -128q0 -80 -54.5 -134.5t-134.5 -54.5 q-89 0 -138.5 52t-49.5 127zM422 1348q0 -52 31.5 -81.5t76.5 -29.5t77 30.5t32 82.5q0 53 -30.5 83.5t-82.5 30.5q-46 0 -75 -32.5t-29 -83.5z" />
<glyph unicode="&#xe6;" horiz-adv-x="1710" d="M92 276q0 80 34 142t90.5 97.5t121.5 53t135 17.5h293v143q0 201 -246 201q-102 0 -173 -39.5t-71 -120.5v-35h-139v31q0 75 33 132t89.5 89.5t123.5 48t143 15.5q268 0 342 -158q56 75 143.5 115.5t194.5 40.5q177 0 292.5 -106t115.5 -298v-162h-690v-106 q0 -126 80 -199.5t215 -73.5q156 0 260 132l118 -72q-129 -191 -389 -191q-140 0 -242.5 55t-152.5 165q-103 -216 -379 -216q-149 0 -245.5 80t-96.5 219zM244 285q0 -90 66 -138.5t165 -48.5q146 0 217.5 74t73.5 201v100h-266q-256 0 -256 -188zM924 590h538v59 q0 121 -69.5 197t-194.5 76q-121 0 -196.5 -79.5t-77.5 -201.5v-51z" />
<glyph unicode="&#xe7;" horiz-adv-x="1003" d="M100 389v229q0 201 117.5 316t308.5 115q180 0 293 -96t113 -261v-26h-148v34q0 92 -67.5 157t-188.5 65q-126 0 -198 -79t-72 -210v-248q0 -129 69 -205t203 -76q121 0 187.5 64t66.5 156v28h148v-22q0 -164 -111 -260.5t-291 -96.5h-16l-12 -67q241 0 241 -154 q0 -78 -64.5 -129t-182.5 -51q-108 0 -201 39v96q103 -39 188 -39q68 0 101.5 18t33.5 62q0 68 -165 78l-43 2l26 154q-156 24 -246 129.5t-90 277.5z" />
<glyph unicode="&#xe8;" horiz-adv-x="1044" d="M100 391v217q0 206 124.5 323.5t316.5 117.5q178 0 292.5 -106t114.5 -298v-162h-690v-106q0 -126 80 -199.5t215 -73.5q156 0 260 132l117 -70q-124 -193 -387 -193q-198 0 -320.5 107t-122.5 311zM240 1520h178l194 -328h-125zM258 590h539v59q0 121 -70 197t-195 76 q-123 0 -198.5 -81t-75.5 -206v-45z" />
<glyph unicode="&#xe9;" horiz-adv-x="1044" d="M100 391v217q0 206 124.5 323.5t316.5 117.5q178 0 292.5 -106t114.5 -298v-162h-690v-106q0 -126 80 -199.5t215 -73.5q156 0 260 132l117 -70q-124 -193 -387 -193q-198 0 -320.5 107t-122.5 311zM258 590h539v59q0 121 -70 197t-195 76q-123 0 -198.5 -81t-75.5 -206 v-45zM481 1192l195 330h178l-250 -330h-123z" />
<glyph unicode="&#xea;" horiz-adv-x="1044" d="M100 391v217q0 206 124.5 323.5t316.5 117.5q178 0 292.5 -106t114.5 -298v-162h-690v-106q0 -126 80 -199.5t215 -73.5q156 0 260 132l117 -70q-124 -193 -387 -193q-198 0 -320.5 107t-122.5 311zM252 1188l201 328h147l193 -328h-146l-119 229l-133 -229h-143z M258 590h539v59q0 121 -70 197t-195 76q-123 0 -198.5 -81t-75.5 -206v-45z" />
<glyph unicode="&#xeb;" horiz-adv-x="1044" d="M100 391v217q0 206 124.5 323.5t316.5 117.5q178 0 292.5 -106t114.5 -298v-162h-690v-106q0 -126 80 -199.5t215 -73.5q156 0 260 132l117 -70q-124 -193 -387 -193q-198 0 -320.5 107t-122.5 311zM252 1196v211h151v-211h-151zM258 590h539v59q0 121 -70 197t-195 76 q-123 0 -198.5 -81t-75.5 -206v-45zM641 1196v211h152v-211h-152z" />
<glyph unicode="&#xec;" horiz-adv-x="450" d="M-82 1520h178l195 -328h-125zM150 0v1028h151v-1028h-151z" />
<glyph unicode="&#xed;" horiz-adv-x="450" d="M150 0v1028h151v-1028h-151zM160 1192l194 330h178l-249 -330h-123z" />
<glyph unicode="&#xee;" horiz-adv-x="450" d="M-45 1188l201 328h147l193 -328h-146l-119 229l-133 -229h-143zM150 0v1028h151v-1028h-151z" />
<glyph unicode="&#xef;" horiz-adv-x="450" d="M-45 1196v211h151v-211h-151zM150 0v1028h151v-1028h-151zM344 1196v211h152v-211h-152z" />
<glyph unicode="&#xf0;" horiz-adv-x="1054" d="M100 377v254q0 191 115.5 302t296.5 120q62 5 121 -23l-127 207l-219 -59l-45 94l200 57l-90 139l150 45l90 -145l231 62l47 -95l-217 -59l248 -395q55 -91 55 -246v-242q0 -199 -117.5 -309.5t-310.5 -110.5q-197 0 -312.5 103.5t-115.5 300.5zM256 379 q0 -129 67.5 -203t204.5 -74q138 0 204.5 76t66.5 215v250q0 133 -63 210t-197 77t-208.5 -78.5t-74.5 -214.5v-258z" />
<glyph unicode="&#xf1;" horiz-adv-x="1107" d="M150 0v1028h147v-178h4q53 97 143 149t195 52q159 0 244.5 -93.5t85.5 -246.5v-711h-154v653q0 133 -58.5 199t-164.5 66q-122 0 -206.5 -85t-84.5 -227v-606h-151zM195 1212q16 91 68 148t134 57q57 0 160.5 -35.5t155.5 -35.5q41 0 61.5 24.5t32.5 71.5l102 -23 q-18 -94 -69 -149.5t-127 -55.5q-57 0 -162.5 36t-159.5 36q-34 0 -53.5 -22t-38.5 -72z" />
<glyph unicode="&#xf2;" horiz-adv-x="1058" d="M100 371v266q0 194 123 303t305 109q194 0 313.5 -109t119.5 -301v-252q0 -130 -58.5 -225.5t-154 -142t-213.5 -46.5q-195 0 -315 104t-120 294zM225 1520h178l195 -328h-125zM254 375q0 -124 73.5 -197.5t207.5 -73.5q129 0 199.5 70.5t70.5 206.5v272q0 121 -71.5 194 t-205.5 73q-128 0 -201 -72.5t-73 -202.5v-270z" />
<glyph unicode="&#xf3;" horiz-adv-x="1058" d="M100 371v266q0 194 123 303t305 109q194 0 313.5 -109t119.5 -301v-252q0 -130 -58.5 -225.5t-154 -142t-213.5 -46.5q-195 0 -315 104t-120 294zM254 375q0 -124 73.5 -197.5t207.5 -73.5q129 0 199.5 70.5t70.5 206.5v272q0 121 -71.5 194t-205.5 73q-128 0 -201 -72.5 t-73 -202.5v-270zM446 1192l195 330h178l-250 -330h-123z" />
<glyph unicode="&#xf4;" horiz-adv-x="1058" d="M100 371v266q0 194 123 303t305 109q194 0 313.5 -109t119.5 -301v-252q0 -130 -58.5 -225.5t-154 -142t-213.5 -46.5q-195 0 -315 104t-120 294zM254 375q0 -124 73.5 -197.5t207.5 -73.5q129 0 199.5 70.5t70.5 206.5v272q0 121 -71.5 194t-205.5 73q-128 0 -201 -72.5 t-73 -202.5v-270zM258 1188l201 328h147l193 -328h-146l-118 229l-134 -229h-143z" />
<glyph unicode="&#xf5;" horiz-adv-x="1058" d="M100 371v266q0 194 123 303t305 109q194 0 313.5 -109t119.5 -301v-252q0 -130 -58.5 -225.5t-154 -142t-213.5 -46.5q-195 0 -315 104t-120 294zM162 1212q16 91 68 148t135 57q57 0 160 -35.5t155 -35.5q41 0 61.5 24.5t32.5 71.5l103 -23q-18 -93 -69.5 -149 t-127.5 -56q-57 0 -162.5 36t-159.5 36q-34 0 -53.5 -22t-38.5 -72zM254 375q0 -124 73.5 -197.5t207.5 -73.5q129 0 199.5 70.5t70.5 206.5v272q0 121 -71.5 194t-205.5 73q-128 0 -201 -72.5t-73 -202.5v-270z" />
<glyph unicode="&#xf6;" horiz-adv-x="1058" d="M100 371v266q0 194 123 303t305 109q194 0 313.5 -109t119.5 -301v-252q0 -130 -58.5 -225.5t-154 -142t-213.5 -46.5q-195 0 -315 104t-120 294zM254 375q0 -124 73.5 -197.5t207.5 -73.5q129 0 199.5 70.5t70.5 206.5v272q0 121 -71.5 194t-205.5 73q-128 0 -201 -72.5 t-73 -202.5v-270zM258 1196v211h152v-211h-152zM647 1196v211h152v-211h-152z" />
<glyph unicode="&#xf7;" horiz-adv-x="1153" d="M66 596v106h1021v-106h-1021zM496 188v213h161v-213h-161zM496 895v215h161v-215h-161z" />
<glyph unicode="&#xf8;" horiz-adv-x="1060" d="M100 371v266q0 194 123 303t305 109q126 0 230 -52l71 136l80 -39l-78 -146q130 -114 130 -309v-252q0 -130 -58.5 -225.5t-154 -142t-213.5 -46.5q-119 0 -209 37l-72 -133l-80 39l74 137q-148 109 -148 318zM254 375q0 -120 65 -191l373 695q-65 41 -164 41 q-128 0 -201 -72.5t-73 -202.5v-270zM391 133q66 -29 144 -29q129 0 199.5 70.5t70.5 206.5v272q0 100 -45 162z" />
<glyph unicode="&#xf9;" horiz-adv-x="1101" d="M139 317v711h154v-653q0 -132 59.5 -197t165.5 -65q120 0 204.5 85t84.5 226v604h151v-1028h-147v178h-4q-53 -99 -142.5 -151t-195.5 -52q-159 0 -244.5 95t-85.5 247zM281 1520h178l194 -328h-125z" />
<glyph unicode="&#xfa;" horiz-adv-x="1101" d="M139 317v711h154v-653q0 -132 59.5 -197t165.5 -65q120 0 204.5 85t84.5 226v604h151v-1028h-147v178h-4q-53 -99 -142.5 -151t-195.5 -52q-159 0 -244.5 95t-85.5 247zM492 1192l194 330h178l-250 -330h-122z" />
<glyph unicode="&#xfb;" horiz-adv-x="1101" d="M139 317v711h154v-653q0 -132 59.5 -197t165.5 -65q120 0 204.5 85t84.5 226v604h151v-1028h-147v178h-4q-53 -99 -142.5 -151t-195.5 -52q-159 0 -244.5 95t-85.5 247zM283 1188l200 328h148l192 -328h-145l-119 229l-133 -229h-143z" />
<glyph unicode="&#xfc;" horiz-adv-x="1101" d="M139 317v711h154v-653q0 -132 59.5 -197t165.5 -65q120 0 204.5 85t84.5 226v604h151v-1028h-147v178h-4q-53 -99 -142.5 -151t-195.5 -52q-159 0 -244.5 95t-85.5 247zM285 1196v211h151v-211h-151zM674 1196v211h151v-211h-151z" />
<glyph unicode="&#xfd;" horiz-adv-x="989" d="M43 1028h166l297 -813h4l285 813h155l-442 -1202q-87 -242 -322 -242q-54 0 -125 15v131q73 -17 127 -17q61 0 105.5 34.5t66.5 94.5l70 183zM438 1192l195 330h178l-250 -330h-123z" />
<glyph unicode="&#xfe;" horiz-adv-x="1097" d="M150 -397v1859h151v-602h4q52 95 140.5 143t179.5 48q166 0 269 -98.5t103 -266.5v-315q0 -100 -32.5 -178t-88 -125t-124 -71t-146.5 -24q-98 0 -182 52.5t-117 138.5h-6v-561h-151zM301 395q0 -130 82.5 -210.5t200.5 -80.5q104 0 181 64.5t77 187.5v324 q0 105 -71.5 172.5t-190.5 67.5q-107 0 -193 -83.5t-86 -222.5v-219z" />
<glyph unicode="&#xff;" horiz-adv-x="989" d="M43 1028h166l297 -813h4l285 813h155l-442 -1202q-87 -242 -322 -242q-54 0 -125 15v131q73 -17 127 -17q61 0 105.5 34.5t66.5 94.5l70 183zM248 1196v211h151v-211h-151zM637 1196v211h151v-211h-151z" />
<glyph unicode="&#x152;" horiz-adv-x="2131" d="M127 463v498q0 122 42.5 222.5t116 166.5t172.5 102.5t212 36.5q128 0 235.5 -42.5t171.5 -121.5v137h936v-145h-772v-490h651v-145h-651v-535h776v-147h-940v152q-65 -84 -171 -131.5t-230 -47.5q-156 0 -278.5 55t-196.5 167.5t-74 267.5zM291 481q0 -165 110 -262.5 t285 -97.5q166 0 277.5 97.5t111.5 270.5v500q0 163 -109.5 257.5t-289.5 94.5q-166 0 -275.5 -101t-109.5 -277v-482z" />
<glyph unicode="&#x153;" horiz-adv-x="1748" d="M100 371v266q0 194 123 303t305 109q125 0 216.5 -47t140.5 -138q56 89 149 137t211 48q178 0 293 -106t115 -298v-162h-690v-112q0 -122 80.5 -194.5t213.5 -72.5q159 0 263 132l116 -68q-130 -195 -387 -195q-124 0 -219 47.5t-149 137.5q-52 -89 -142 -137t-204 -48 q-195 0 -315 104t-120 294zM254 375q0 -124 73.5 -197.5t207.5 -73.5q127 0 198.5 73.5t71.5 207.5v268q0 121 -71.5 194t-205.5 73q-128 0 -201 -72.5t-73 -202.5v-270zM963 590h538v59q0 121 -69 197t-195 76q-123 0 -198.5 -81t-75.5 -206v-45z" />
<glyph unicode="&#x178;" horiz-adv-x="1191" d="M43 1460h182l375 -692l371 692h180l-475 -854v-606h-160v608zM326 1604v211h151v-211h-151zM715 1604v211h151v-211h-151z" />
<glyph unicode="&#x2c6;" horiz-adv-x="802" d="M131 1188l201 328h147l193 -328h-146l-118 229l-134 -229h-143z" />
<glyph unicode="&#x2dc;" horiz-adv-x="907" d="M106 1212q16 91 68 148t135 57q57 0 160.5 -35.5t155.5 -35.5q41 0 61.5 24.5t32.5 71.5l102 -23q-18 -94 -69 -149.5t-127 -55.5q-57 0 -162.5 36t-159.5 36q-34 0 -53.5 -22t-38.5 -72z" />
<glyph unicode="&#x2000;" horiz-adv-x="977" />
<glyph unicode="&#x2001;" horiz-adv-x="1954" />
<glyph unicode="&#x2002;" horiz-adv-x="977" />
<glyph unicode="&#x2003;" horiz-adv-x="1954" />
<glyph unicode="&#x2004;" horiz-adv-x="651" />
<glyph unicode="&#x2005;" horiz-adv-x="488" />
<glyph unicode="&#x2006;" horiz-adv-x="325" />
<glyph unicode="&#x2007;" horiz-adv-x="325" />
<glyph unicode="&#x2008;" horiz-adv-x="244" />
<glyph unicode="&#x2009;" horiz-adv-x="390" />
<glyph unicode="&#x200a;" horiz-adv-x="108" />
<glyph unicode="&#x2010;" horiz-adv-x="731" d="M94 512v135h543v-135h-543z" />
<glyph unicode="&#x2011;" horiz-adv-x="731" d="M94 512v135h543v-135h-543z" />
<glyph unicode="&#x2012;" horiz-adv-x="731" d="M94 512v135h543v-135h-543z" />
<glyph unicode="&#x2013;" horiz-adv-x="946" d="M0 551v111h946v-111h-946z" />
<glyph unicode="&#x2014;" horiz-adv-x="1568" d="M0 551v111h1569v-111h-1569z" />
<glyph unicode="&#x2018;" horiz-adv-x="460" d="M145 995v232l70 243h84l-43 -239h55v-236h-166z" />
<glyph unicode="&#x2019;" horiz-adv-x="462" d="M150 1233v237h165v-231l-69 -244h-84l45 238h-57z" />
<glyph unicode="&#x201a;" horiz-adv-x="460" d="M147 4v236h168v-232l-69 -246h-84l43 242h-58z" />
<glyph unicode="&#x201c;" horiz-adv-x="774" d="M145 995v232l70 243h84l-43 -239h55v-236h-166zM461 995v232l71 243h82l-43 -239h56v-236h-166z" />
<glyph unicode="&#x201d;" horiz-adv-x="774" d="M147 1233v237h168v-231l-69 -244h-84l43 238h-58zM463 1233v237h166v-231l-70 -244h-84l43 238h-55z" />
<glyph unicode="&#x201e;" horiz-adv-x="774" d="M147 4v236h168v-232l-69 -246h-84l43 242h-58zM463 4v236h166v-232l-70 -246h-84l43 242h-55z" />
<glyph unicode="&#x2022;" horiz-adv-x="792" d="M188 748q0 86 61 147t148 61t148 -61t61 -147q0 -88 -60.5 -149.5t-148.5 -61.5t-148.5 61.5t-60.5 149.5z" />
<glyph unicode="&#x2026;" horiz-adv-x="1441" d="M162 0v240h166v-240h-166zM637 0v240h168v-240h-168zM1114 0v240h166v-240h-166z" />
<glyph unicode="&#x202f;" horiz-adv-x="390" />
<glyph unicode="&#x2039;" horiz-adv-x="671" d="M98 549l396 389l75 -70l-280 -319l282 -320l-75 -67z" />
<glyph unicode="&#x203a;" horiz-adv-x="671" d="M100 231l283 320l-283 317l80 70l391 -387l-393 -389z" />
<glyph unicode="&#x205f;" horiz-adv-x="488" />
<glyph unicode="&#x20ac;" horiz-adv-x="1464" d="M109 512v100h206v224h-206v98h206v53q0 222 148.5 362t382.5 140q222 0 365 -120t143 -318v-74h-160v51q0 145 -102.5 229t-266.5 84q-158 0 -252 -96t-94 -262v-49h547v-98h-547v-224h547v-100h-547v-39q0 -164 94.5 -258t262.5 -94q163 0 260.5 83.5t97.5 229.5v31h160 v-53q0 -202 -146 -320.5t-372 -118.5q-237 0 -379 128t-142 362v49h-206z" />
<glyph unicode="&#x2122;" horiz-adv-x="1341" d="M90 1382v82h483v-82h-194v-548h-92v548h-197zM668 834v630h108l166 -325l164 325h111v-630h-87l-2 479l-155 -314h-64l-155 312v-477h-86z" />
<glyph unicode="&#x25fc;" horiz-adv-x="1024" d="M0 0v1024h1024v-1024h-1024z" />
</font>
</defs>
</svg>
