<?xml version="1.0" standalone="no"?>
<!DOCTYPE svg PUBLIC "-//W3C//DTD SVG 1.1//EN" "http://www.w3.org/Graphics/SVG/1.1/DTD/svg11.dtd" >
<svg xmlns="http://www.w3.org/2000/svg" xmlns:xlink="http://www.w3.org/1999/xlink" version="1.1">
<metadata></metadata>
<defs>
<font id="flamalight" horiz-adv-x="1353" >
<font-face units-per-em="2048" ascent="1638" descent="-410" />
<missing-glyph horiz-adv-x="487" />
<glyph unicode="&#xfb01;" horiz-adv-x="1087" d="M63 922v96h195v188q0 138 69.5 212.5t198.5 74.5q58 0 111 -12v-107q-42 12 -105 12q-70 0 -112.5 -41t-42.5 -128v-199h250v-96h-250v-922h-119v922h-195zM815 0v1020h119v-1020h-119zM815 1266v209h119v-209h-119z" />
<glyph unicode="&#xfb02;" horiz-adv-x="1253" d="M63 922v96h195v188q0 138 69.5 212.5t198.5 74.5q58 0 111 -12v-107q-42 12 -105 12q-70 0 -112.5 -41t-42.5 -128v-199h250v-96h-250v-922h-119v922h-195zM817 242v1220h121v-1229q0 -63 36.5 -102t108.5 -39q33 0 115 10v-92q-70 -20 -154 -20q-64 0 -110 21t-70.5 58 t-35.5 79.5t-11 93.5z" />
<glyph horiz-adv-x="0" />
<glyph horiz-adv-x="682" />
<glyph unicode=" "  horiz-adv-x="487" />
<glyph unicode="&#x09;" horiz-adv-x="487" />
<glyph unicode="&#xa0;" horiz-adv-x="487" />
<glyph unicode="!" horiz-adv-x="567" d="M215 0v217h135v-217h-135zM221 999v461h127v-461l-22 -604h-80z" />
<glyph unicode="&#x22;" horiz-adv-x="724" d="M154 1272v192h118v-192l-20 -228h-76zM453 1272v192h118v-192l-20 -228h-78z" />
<glyph unicode="#" horiz-adv-x="1159" d="M43 397l16 82h211l90 508h-223l17 78h219l67 375h76l-63 -375h385l65 375h78l-63 -375h210l-12 -78h-211l-92 -508h219l-12 -82h-217l-70 -405h-82l68 405h-381l-68 -405h-82l70 405h-215zM352 479h381l92 508h-385z" />
<glyph unicode="$" horiz-adv-x="1085" d="M102 410l107 36q39 -106 126 -163.5t216 -57.5q133 0 217 61.5t84 164.5q0 49 -16.5 87.5t-47 64t-63.5 41.5t-78 30q-25 8 -117.5 33.5t-117.5 33.5q-129 37 -186.5 108.5t-57.5 184.5q0 131 93.5 219t242.5 97v204h94v-204q259 -23 346 -222l-100 -43q-88 164 -299 164 q-107 0 -183.5 -55.5t-76.5 -151.5q0 -75 42 -121.5t156 -78.5l228 -68q124 -35 191 -108t67 -205q0 -135 -100.5 -228.5t-270.5 -105.5v-217h-94v215q-154 7 -259.5 83t-142.5 202z" />
<glyph unicode="%" horiz-adv-x="1544" d="M117 973v268q0 120 72.5 181t185.5 61q116 0 190 -60.5t74 -183.5v-276q0 -111 -77.5 -172.5t-188.5 -61.5q-119 0 -187.5 63.5t-68.5 180.5zM205 961q0 -73 43.5 -115.5t126.5 -42.5t130.5 46t47.5 112v292q0 67 -47 113.5t-129 46.5t-127 -45.5t-45 -114.5v-292zM274 0 l930 1468h88l-927 -1468h-91zM905 213v266q0 122 74 187t186 65q116 0 190.5 -60.5t74.5 -183.5v-276q0 -112 -77.5 -173t-189.5 -61q-115 0 -186.5 60t-71.5 176zM993 209q0 -74 44 -117t128 -43q83 0 130.5 46t47.5 114v291q0 68 -47 115t-131 47q-82 0 -127 -45.5 t-45 -116.5v-291z" />
<glyph unicode="&#x26;" horiz-adv-x="1525" d="M147 381q0 61 21 121t64.5 119t121.5 109.5t183 82.5q-195 195 -195 350q0 44 12 87t41.5 87t74.5 77t118 54t164 21q168 0 261 -88.5t93 -214.5q0 -146 -102.5 -246.5t-276.5 -153.5l399 -432q71 118 121 285l105 -16q-45 -172 -152 -349l260 -274h-168l-182 190 q-193 -219 -498 -219q-106 0 -195 33t-147.5 89.5t-90.5 131t-32 156.5zM283 393q0 -140 98.5 -230.5t251.5 -90.5q124 0 232.5 49.5t178.5 140.5l-446 486q-153 -43 -234 -142.5t-81 -212.5zM481 1169q0 -65 36 -126t99 -132q45 -50 54 -63q159 50 241 129t82 207 q0 102 -73 156.5t-168 54.5q-128 0 -199.5 -63.5t-71.5 -162.5z" />
<glyph unicode="'" horiz-adv-x="428" d="M154 1272v192h118v-192l-20 -228h-76z" />
<glyph unicode="(" horiz-adv-x="616" d="M193 565q0 238 66 485.5t202 446.5l69 -6q-121 -237 -177 -443.5t-56 -484.5q0 -511 238 -934l-72 -4q-91 118 -154.5 296.5t-89.5 340.5t-26 303z" />
<glyph unicode=")" horiz-adv-x="616" d="M84 -371q235 418 235 934q0 278 -56 484.5t-177 443.5l70 6q136 -198 201 -445.5t65 -486.5q0 -141 -25.5 -303t-88.5 -341t-154 -296z" />
<glyph unicode="*" horiz-adv-x="843" d="M86 1255l39 64l258 -152v293h78v-293l258 152l39 -64l-254 -151l170 -236l-66 -45l-186 256l-184 -256l-66 45l166 236z" />
<glyph unicode="+" horiz-adv-x="1146" d="M78 608v82h452v455h88v-455h451v-82h-451v-454h-88v454h-452z" />
<glyph unicode="," horiz-adv-x="428" d="M147 2v215h134v-213l-60 -225h-65l37 223h-46z" />
<glyph unicode="-" horiz-adv-x="727" d="M100 526v109h527v-109h-527z" />
<glyph unicode="." horiz-adv-x="428" d="M147 0v217h134v-217h-134z" />
<glyph unicode="/" horiz-adv-x="694" d="M14 -272l535 1755h94l-532 -1755h-97z" />
<glyph unicode="0" horiz-adv-x="1183" d="M123 387v682q0 99 38.5 179.5t104 132t150.5 79t180 27.5q203 0 334 -110.5t131 -307.5v-680q0 -129 -65 -225.5t-169.5 -143.5t-230.5 -47q-132 0 -237.5 45.5t-170.5 141t-65 227.5zM252 393q0 -135 93 -225t251 -90q157 0 246.5 89.5t89.5 231.5v674 q0 130 -91.5 220.5t-246.5 90.5t-248.5 -92t-93.5 -227v-672z" />
<glyph unicode="1" horiz-adv-x="1011" d="M100 0v96h369v1250l-340 -64l-10 88l418 94h57v-1368h344v-96h-838z" />
<glyph unicode="2" horiz-adv-x="1067" d="M113 1090v53q0 166 114 256t303 90q197 0 301.5 -104t104.5 -275q0 -104 -26.5 -199t-83 -188.5t-114 -167t-149.5 -176.5l-250 -270v-3h660v-106h-828v82l385 432q66 75 111 136.5t85 136t59.5 155.5t19.5 170q0 123 -73.5 197.5t-215.5 74.5q-126 0 -205.5 -64 t-79.5 -177v-53h-118z" />
<glyph unicode="3" horiz-adv-x="1105" d="M123 291v65h121v-51q0 -57 27 -102t72.5 -72t101 -41t116.5 -14q134 0 226 86t92 231q0 75 -25.5 133t-62 90t-84 52.5t-84 27t-68.5 6.5h-166v107h166q131 0 209 75.5t78 217.5q0 74 -25 130.5t-67 88t-90.5 46.5t-102.5 15q-83 0 -148.5 -23.5t-109 -81.5t-43.5 -144 v-35h-119v55q0 148 114.5 241t307.5 93q87 0 158 -22.5t115.5 -59t75 -85t43 -98t12.5 -100.5q0 -59 -12.5 -113t-40 -103.5t-77 -86.5t-116.5 -53v-6q127 -31 212 -125.5t85 -233.5q0 -197 -128.5 -312.5t-328.5 -115.5q-107 0 -192.5 27t-137 73t-78 101.5t-26.5 116.5z " />
<glyph unicode="4" horiz-adv-x="1171" d="M121 414v100l584 948h137l-590 -946h491v320l123 104v-424h213v-102h-213v-414h-123v414h-622z" />
<glyph unicode="5" horiz-adv-x="1101" d="M121 285v71h121v-49q0 -109 90 -169t217 -60q49 0 93 10t87.5 36.5t74.5 67t50.5 106.5t19.5 151v40q0 81 -24.5 143.5t-67 99.5t-97 56t-118.5 19q-156 0 -293 -113l-116 17l45 751h725v-114h-623l-33 -545q86 60 166.5 85t173.5 25q76 0 145.5 -25t125.5 -73 t89.5 -125.5t33.5 -173.5v-67q0 -234 -125.5 -355t-331.5 -121q-106 0 -190 27t-134.5 72t-77 99.5t-26.5 113.5z" />
<glyph unicode="6" horiz-adv-x="1128" d="M125 389v688q0 188 126.5 299t323.5 111q190 0 301 -90t111 -244v-45h-119v29q0 116 -81 181.5t-214 65.5q-149 0 -234 -86t-85 -217v-358q61 95 165 148t214 53q156 0 263.5 -92t107.5 -238v-238q0 -180 -123 -281.5t-322 -101.5q-195 0 -314.5 116t-119.5 300zM254 379 q0 -123 84.5 -212t232.5 -89q146 0 227 76t81 192v209q0 71 -26.5 124.5t-71 82.5t-94 43t-103.5 14q-74 0 -148.5 -35.5t-128 -106.5t-53.5 -159v-139z" />
<glyph unicode="7" horiz-adv-x="1058" d="M119 1346v114h880v-90q-267 -283 -393 -617.5t-149 -752.5h-140q25 390 165 750.5t358 595.5h-721z" />
<glyph unicode="8" horiz-adv-x="1114" d="M113 344v76q0 113 71 201.5t181 126.5q-107 30 -170.5 113t-63.5 181v72q0 119 62 205.5t157 127t207 40.5q85 0 160 -21.5t135.5 -63.5t95.5 -111.5t35 -157.5q2 -48 0 -91q0 -95 -65 -178t-175 -114q110 -30 183 -118.5t73 -207.5v-72q0 -176 -123.5 -277.5 t-320.5 -101.5t-319.5 100t-122.5 271zM242 352q0 -123 92 -200.5t223 -77.5q139 0 226 76t87 212v60q0 70 -28 124.5t-74.5 86t-100 47.5t-110.5 16q-59 0 -114 -17t-100.5 -49t-73 -86t-27.5 -122v-70zM256 1059q0 -66 28.5 -119t74.5 -84t98 -47t104 -16 q114 0 206.5 74.5t92.5 193.5v74q0 83 -46.5 141.5t-114.5 84t-148 25.5q-116 0 -205.5 -70.5t-89.5 -189.5v-67z" />
<glyph unicode="9" horiz-adv-x="1138" d="M121 866v224q0 183 124 290t322 107q195 0 313.5 -115.5t118.5 -298.5v-690q0 -189 -127 -298.5t-323 -109.5q-192 0 -301 89t-109 245v45h119v-30q0 -117 80.5 -182.5t214.5 -65.5q148 0 232.5 86.5t84.5 218.5v360q-55 -108 -156.5 -157t-221.5 -49q-156 0 -263.5 92.5 t-107.5 238.5zM246 907q0 -71 26.5 -124.5t70.5 -84t94 -45t104 -14.5q74 0 148.5 36t127.5 107.5t53 159.5v141q0 79 -34.5 146.5t-108.5 112t-174 44.5q-144 0 -225.5 -83.5t-81.5 -200.5v-195z" />
<glyph unicode=":" horiz-adv-x="428" d="M147 0v217h134v-217h-134zM147 760v217h134v-217h-134z" />
<glyph unicode=";" horiz-adv-x="428" d="M147 2v215h134v-213l-60 -225h-65l37 223h-46zM147 760v217h134v-217h-134z" />
<glyph unicode="&#x3c;" horiz-adv-x="1155" d="M104 614v70l902 410l36 -76l-815 -367l809 -383l-39 -75z" />
<glyph unicode="=" horiz-adv-x="1155" d="M74 418v84h1007v-84h-1007zM74 805v84h1007v-84h-1007z" />
<glyph unicode="&#x3e;" horiz-adv-x="1155" d="M113 1018l37 76l901 -410v-70l-893 -421l-37 75l809 383z" />
<glyph unicode="?" horiz-adv-x="1064" d="M135 1081v56q0 87 33.5 155t91 109.5t130.5 62.5t157 21q180 0 285.5 -92.5t105.5 -262.5q1 -65 -15 -122.5t-50 -107t-64.5 -83t-77.5 -76.5q-5 -4 -29 -26.5t-30 -29t-26 -27t-27 -31t-20.5 -31t-19 -36t-11.5 -36.5t-7 -43v-94h-115v96q5 63 30 118t52.5 88.5 t79.5 86.5q95 93 121 124q88 106 88 224q0 126 -76.5 193t-205.5 67q-49 0 -96 -12.5t-91 -38.5t-71 -75t-27 -115v-62h-115zM436 0v217h133v-217h-133z" />
<glyph unicode="@" horiz-adv-x="1959" d="M131 512q1 274 125.5 484t336 320.5t474.5 110.5q161 0 305.5 -53t250.5 -146t168 -226t62 -285q0 -131 -37.5 -240.5t-98 -182.5t-139.5 -123.5t-160.5 -73.5t-162.5 -23h-81l36 196h-6q-69 -112 -166 -166.5t-190 -54.5q-134 0 -210.5 67t-76.5 185q0 39 6 74 q5 23 29 159.5t27 157.5q16 91 56 162t95.5 114.5t121 66t136.5 22.5q99 0 178 -53.5t93 -151.5h6l34 192h99l-156 -901q64 2 129.5 25t128.5 71t111.5 114.5t78 163t29.5 208.5q0 135 -59 253t-156 199.5t-225 128t-264 46.5q-238 0 -429 -102t-302 -293t-111 -439 q0 -145 39.5 -267.5t109.5 -211.5t162 -150t203 -94q138 -41 299 -41q202 0 410 58l16 -66q-193 -68 -442 -68q-183 0 -334 52q-120 40 -219 108t-174.5 164t-116.5 226.5t-39 283.5zM670 317q0 -85 59 -131.5t166 -46.5q112 0 218.5 101.5t131.5 248.5l27 164q6 34 6 64 q0 126 -70 189t-174 63q-117 0 -199.5 -68t-105.5 -194l-55 -322q-4 -32 -4 -68z" />
<glyph unicode="A" horiz-adv-x="1335" d="M63 0l547 1464h123l537 -1464h-135l-164 461h-611l-167 -461h-130zM397 569h537l-264 742h-2z" />
<glyph unicode="B" horiz-adv-x="1257" d="M166 0v1462h539q189 0 298 -92.5t109 -265.5q0 -123 -72.5 -217.5t-197.5 -124.5v-2q149 -22 231 -121.5t82 -235.5q0 -100 -37 -179t-99.5 -126.5t-140 -72.5t-163.5 -25h-549zM295 111h389q151 0 245.5 75t94.5 222q0 97 -47.5 163.5t-123 95.5t-173.5 29h-385v-585z M295 805h360q66 0 124.5 16.5t105 49.5t73.5 87.5t27 124.5q0 134 -86 201.5t-225 67.5h-379v-547z" />
<glyph unicode="C" horiz-adv-x="1294" d="M131 457v522q0 224 153.5 367t391.5 143q222 0 366 -118.5t144 -305.5v-82h-125v61q0 150 -105 239t-286 89q-180 0 -295 -108.5t-115 -286.5v-500q0 -177 115.5 -283t304.5 -106q178 0 279.5 89.5t101.5 240.5v35h125v-58q0 -193 -141 -307.5t-365 -114.5 q-157 0 -279.5 54t-196 165t-73.5 265z" />
<glyph unicode="D" horiz-adv-x="1339" d="M166 0v1460h534q227 0 367.5 -126t140.5 -351v-494q0 -150 -67.5 -262t-182 -169.5t-258.5 -57.5h-534zM295 115h397q181 0 284 103.5t103 262.5v498q0 164 -102 265.5t-289 101.5h-393v-1231z" />
<glyph unicode="E" horiz-adv-x="1198" d="M166 0v1460h911v-114h-782v-533h647v-113h-647v-585h786v-115h-915z" />
<glyph unicode="F" horiz-adv-x="1128" d="M166 0v1460h899v-114h-770v-537h629v-113h-629v-696h-129z" />
<glyph unicode="G" horiz-adv-x="1343" d="M139 457v522q0 224 153 367t390 143q223 0 366.5 -116t143.5 -302v-80h-123v60q0 149 -105 235t-288 86q-179 0 -293.5 -108.5t-114.5 -286.5v-500q0 -177 115.5 -283t302.5 -106q181 0 286 88t105 238v207h-409v116h532v-342q0 -194 -140.5 -308t-373.5 -114 q-156 0 -278 54t-195.5 165t-73.5 265z" />
<glyph unicode="H" horiz-adv-x="1384" d="M166 0v1460h129v-647h792v647h130v-1460h-130v700h-792v-700h-129z" />
<glyph unicode="I" horiz-adv-x="460" d="M166 0v1460h129v-1460h-129z" />
<glyph unicode="J" horiz-adv-x="1177" d="M94 408v108h127v-84q0 -68 17 -125.5t55 -108.5t109.5 -80.5t170.5 -29.5q78 0 141 28.5t102 76.5t60 106.5t21 122.5v1038h129v-1028q0 -96 -29 -177.5t-85.5 -144.5t-148 -99t-208.5 -36q-213 0 -337 111t-124 322z" />
<glyph unicode="K" horiz-adv-x="1267" d="M166 0v1462h129v-794l747 794h158l-543 -575l578 -887h-152l-512 793l-276 -283v-510h-129z" />
<glyph unicode="L" horiz-adv-x="1136" d="M166 0v1462h129v-1347h770v-115h-899z" />
<glyph unicode="M" horiz-adv-x="1617" d="M166 0v1460h160l485 -891h2l475 891h164v-1460h-127v1237h-4l-461 -844h-102l-461 842h-6v-1235h-125z" />
<glyph unicode="N" horiz-adv-x="1382" d="M166 0v1462h133l793 -1237h4v1237h123v-1462h-127l-801 1255h-4v-1255h-121z" />
<glyph unicode="O" d="M131 457v508q0 159 73 279.5t196 182.5t276 62q156 0 279 -57.5t195.5 -171t72.5 -267.5v-495q0 -159 -72.5 -279.5t-195 -183t-275.5 -62.5q-115 0 -214 31.5t-174 91t-118 152.5t-43 209zM260 477q0 -178 115.5 -283.5t304.5 -105.5q180 0 297 107t117 290v510 q0 175 -115 276t-309 101q-181 0 -295.5 -111.5t-114.5 -297.5v-486z" />
<glyph unicode="P" horiz-adv-x="1220" d="M166 0v1460h500q212 0 337 -119t125 -313t-131 -317t-360 -123h-342v-588h-129zM295 698h309q187 0 291 83.5t104 246.5q0 146 -96.5 234t-251.5 88h-356v-652z" />
<glyph unicode="Q" d="M131 457v508q0 159 73 279.5t196 182.5t276 62q156 0 279 -57.5t195.5 -171t72.5 -267.5v-495q0 -142 -57.5 -252t-159.5 -180l247 -156l-88 -105l-286 199q-105 -31 -199 -31q-115 0 -214 31.5t-174 91t-118 152.5t-43 209zM260 477q0 -178 115.5 -283.5t304.5 -105.5 q180 0 297 107t117 290v510q0 175 -115 276t-309 101q-181 0 -295.5 -111.5t-114.5 -297.5v-486z" />
<glyph unicode="R" horiz-adv-x="1261" d="M166 0v1462h498q213 0 342 -114.5t129 -313.5q0 -165 -96.5 -280t-282.5 -142l444 -612h-147l-435 602h-323v-602h-129zM295 711h330q381 0 381 325q0 155 -101 235.5t-282 80.5h-328v-641z" />
<glyph unicode="S" horiz-adv-x="1200" d="M78 319l119 43q45 -130 154.5 -202t266.5 -72q159 0 263 78t104 209q0 120 -59.5 183t-173.5 99l-287 84q-158 46 -235.5 135t-77.5 232q0 169 129 274t325 105q171 0 294.5 -65.5t180.5 -200.5l-110 -45q-107 200 -363 200q-85 0 -157 -26.5t-121 -86.5t-49 -143 q0 -96 56.5 -161.5t194.5 -106.5l287 -84q293 -83 293 -379q0 -185 -137 -299.5t-365 -114.5q-202 0 -343.5 90t-188.5 254z" />
<glyph unicode="T" horiz-adv-x="1216" d="M51 1348v112h1114v-112h-491v-1348h-129v1348h-494z" />
<glyph unicode="U" horiz-adv-x="1368" d="M154 467v993h129v-964q0 -105 31.5 -185t87.5 -127t127.5 -70.5t156.5 -23.5q189 0 297 104q102 99 102 272v19v975h127v-985v-9q0 -225 -143 -357q-146 -134 -389 -134q-81 0 -155.5 17t-142.5 55t-118.5 94t-80 140t-29.5 186z" />
<glyph unicode="V" horiz-adv-x="1187" d="M31 1460h133l426 -1294h2l432 1294h133l-504 -1468h-129z" />
<glyph unicode="W" horiz-adv-x="1765" d="M57 1460h133l308 -1267h2l325 1267h119l320 -1267h4l311 1267h129l-381 -1468h-123l-319 1268h-4l-320 -1268h-127z" />
<glyph unicode="X" horiz-adv-x="1138" d="M39 0l459 764l-414 696h147l342 -600l355 600h139l-422 -700l459 -760h-150l-385 653l-389 -653h-141z" />
<glyph unicode="Y" horiz-adv-x="1173" d="M55 1460h146l389 -719l387 719h141l-469 -848v-612h-125v614z" />
<glyph unicode="Z" horiz-adv-x="1114" d="M66 0v100l794 1252h-766v110h926v-98l-791 -1249h795v-115h-958z" />
<glyph unicode="[" horiz-adv-x="716" d="M268 -385v1929h381v-80h-274v-1769h274v-80h-381z" />
<glyph unicode="\" horiz-adv-x="694" d="M76 1483h92l534 -1755h-94z" />
<glyph unicode="]" horiz-adv-x="716" d="M68 -305h274v1769h-274v80h381v-1929h-381v80z" />
<glyph unicode="^" horiz-adv-x="980" d="M225 354l211 836h127l191 -836h-107l-149 717l-166 -717h-107z" />
<glyph unicode="_" horiz-adv-x="1024" d="M0 -156h1024v-86h-1024v86z" />
<glyph unicode="`" horiz-adv-x="606" d="M80 1501h139l203 -319h-100z" />
<glyph unicode="a" horiz-adv-x="1032" d="M98 268q0 82 35 143.5t92.5 95.5t121 50t130.5 16h299v158q0 215 -260 215q-50 0 -95 -9.5t-83.5 -29.5t-61 -55.5t-22.5 -83.5v-33h-111v31q0 73 32 128.5t87 87t120 47t140 15.5q79 0 143.5 -15t118 -47.5t83.5 -91t30 -138.5v-496q0 -45 5 -134t9 -122h-118 q-9 79 -9 162h-4q-30 -57 -70.5 -95.5t-88 -57t-91 -25.5t-96.5 -7q-144 0 -240 77.5t-96 213.5zM219 274q0 -97 72 -149.5t176 -52.5q150 0 229.5 80.5t79.5 216.5v114h-274q-283 0 -283 -209z" />
<glyph unicode="b" horiz-adv-x="1071" d="M154 0v1460h118v-622h7q48 103 139 154.5t188 51.5q162 0 261.5 -96.5t99.5 -255.5v-332q0 -99 -32.5 -175.5t-87.5 -121.5t-121.5 -67.5t-141.5 -22.5q-103 0 -192 56.5t-120 152.5h-6v-182h-112zM272 397q0 -143 87.5 -232t211.5 -89q110 0 191.5 69.5t81.5 198.5v348 q0 108 -74.5 178t-200.5 70q-72 0 -139 -40t-112.5 -119.5t-45.5 -180.5v-203z" />
<glyph unicode="c" horiz-adv-x="976" d="M102 383v238q0 196 111 308.5t297 112.5q179 0 284 -92t105 -245v-31h-117v41q0 41 -15.5 79.5t-46.5 72.5t-85 54.5t-123 20.5q-138 0 -211.5 -87t-73.5 -226v-248q0 -141 70.5 -223t216.5 -82q69 0 122.5 20t84 54t46 72.5t15.5 80.5v35h117v-27q0 -154 -103.5 -246 t-283.5 -92q-192 0 -301 107.5t-109 302.5z" />
<glyph unicode="d" horiz-adv-x="1073" d="M104 322v335q0 99 31.5 175.5t86 121.5t120.5 67.5t141 22.5q103 0 191 -56t119 -152h4v622h121v-1458h-117v201h-4q-52 -114 -144.5 -171t-187.5 -57q-163 0 -262 95t-99 254zM225 330q0 -109 74.5 -180.5t200.5 -71.5q54 0 107 24t96 66.5t69.5 108.5t26.5 143v201 q0 144 -87.5 232.5t-213.5 88.5q-51 0 -98.5 -16.5t-87 -48t-63.5 -84.5t-24 -119v-344z" />
<glyph unicode="e" horiz-adv-x="1019" d="M102 385v221q0 205 118.5 320.5t307.5 115.5q176 0 285 -105t109 -296v-149h-695v-121q0 -136 82.5 -215.5t229.5 -79.5q166 0 272 131l90 -57q-123 -177 -371 -177q-195 0 -311.5 104t-116.5 308zM227 578h576v69q0 128 -72.5 211.5t-212.5 83.5q-134 0 -212.5 -90 t-78.5 -219v-55z" />
<glyph unicode="f" horiz-adv-x="661" d="M63 922v96h195v188q0 138 69.5 212.5t198.5 74.5q58 0 111 -12v-107q-42 12 -105 12q-70 0 -112.5 -41t-42.5 -128v-199h250v-96h-250v-922h-119v922h-195z" />
<glyph unicode="g" horiz-adv-x="1067" d="M106 360v304q0 93 32 167.5t85.5 120t118.5 69t135 23.5q61 0 122 -19.5t118 -68.5t82 -120v184h116v-1020q0 -185 -114 -303.5t-318 -118.5q-113 0 -207 44t-151 132l108 49q97 -127 259 -127q141 0 224 84t83 228v225q-50 -103 -139 -153t-193 -50q-167 0 -264 95 t-97 255zM229 360q0 -110 73 -180.5t202 -70.5q55 0 106.5 20t94.5 59t68.5 104.5t25.5 147.5v195q0 139 -90.5 222t-206.5 83q-52 0 -99.5 -16t-87 -47.5t-63 -84.5t-23.5 -120v-312z" />
<glyph unicode="h" horiz-adv-x="1085" d="M154 0v1462h118v-637h7q51 106 144.5 162.5t201.5 56.5q153 0 235 -90t82 -231v-723h-121v668q0 137 -62 203.5t-171 66.5q-127 0 -221.5 -91.5t-94.5 -236.5v-610h-118z" />
<glyph unicode="i" horiz-adv-x="425" d="M154 0v1020h118v-1020h-118zM154 1251v209h118v-209h-118z" />
<glyph unicode="j" horiz-adv-x="471" d="M-51 -311q46 -4 74 -4q91 0 129 48.5t38 141.5v1145h121v-1155q0 -143 -70 -214t-216 -71q-40 0 -76 4v105zM193 1251v209h120v-209h-120z" />
<glyph unicode="k" horiz-adv-x="983" d="M154 0v1462h120v-973l486 531h147l-350 -375l383 -645h-135l-332 559l-199 -209v-350h-120z" />
<glyph unicode="l" horiz-adv-x="591" d="M156 242v1220h120v-1229q0 -63 37.5 -102t110.5 -39q30 0 113 10v-92q-70 -20 -152 -20q-64 0 -110.5 21t-71.5 58t-36 79.5t-11 93.5z" />
<glyph unicode="m" horiz-adv-x="1742" d="M152 0v1020h114v-195h4q53 106 147.5 162.5t207.5 56.5q119 0 191.5 -63t96.5 -160h2q55 107 151 165t212 58q147 0 232 -86t85 -225v-733h-118v668q0 135 -61.5 202.5t-174.5 67.5q-121 0 -212 -89t-95 -222v-627h-119v674q-3 131 -62.5 197.5t-170.5 66.5 q-74 0 -143.5 -36t-118 -110.5t-48.5 -170.5v-621h-120z" />
<glyph unicode="n" horiz-adv-x="1085" d="M154 0v1020h114v-195h4q53 106 147.5 162.5t205.5 56.5q153 0 235 -90t82 -231v-723h-121v668q0 137 -62 203.5t-171 66.5q-127 0 -221.5 -91.5t-94.5 -236.5v-610h-118z" />
<glyph unicode="o" horiz-adv-x="1036" d="M104 365v274q0 193 116 298t298 105q192 0 303 -105t111 -296v-264q0 -192 -113.5 -298t-296.5 -106q-192 0 -305 101.5t-113 290.5zM225 369q0 -135 75.5 -214t221.5 -79q144 0 216.5 76t72.5 223v276q0 131 -74 210t-219 79q-142 0 -217.5 -79t-75.5 -218v-274z" />
<glyph unicode="p" horiz-adv-x="1071" d="M154 -397v1417h114v-182h4q51 102 144 154t190 52q162 0 261.5 -94.5t99.5 -253.5v-336q0 -99 -32 -175.5t-86.5 -121.5t-120.5 -67.5t-140 -22.5q-104 0 -191 56t-118 153h-7v-579h-118zM272 397q0 -143 87.5 -232t211.5 -89q110 0 191.5 69.5t81.5 198.5v344 q0 109 -74.5 180.5t-200.5 71.5q-54 0 -106 -22.5t-95 -64t-69.5 -106t-26.5 -141.5v-209z" />
<glyph unicode="q" horiz-adv-x="1071" d="M104 322v335q0 99 31.5 175.5t86 121.5t120.5 67.5t141 22.5q103 0 192 -56t120 -152h4v184h119v-1417h-119v585h-4q-37 -75 -95.5 -125t-116.5 -70t-118 -20q-163 0 -262 95t-99 254zM225 330q0 -109 74.5 -180.5t200.5 -71.5q54 0 107 24t96 66.5t69.5 108.5t26.5 143 v201q0 144 -87.5 232.5t-213.5 88.5q-51 0 -98.5 -16.5t-87 -48t-63.5 -84.5t-24 -119v-344z" />
<glyph unicode="r" horiz-adv-x="747" d="M147 0v1020h117v-217h4q114 231 379 231q42 0 72 -6v-113q-41 7 -94 7q-153 0 -253 -93.5t-104 -261.5v-567h-121z" />
<glyph unicode="s" horiz-adv-x="956" d="M78 125l82 70q129 -123 317 -123q106 0 185 54.5t79 147.5q0 88 -52 128.5t-167 62.5l-112 24q-289 56 -289 261q0 128 95 211t259 83q231 0 340 -112l-80 -68q-107 86 -270 86q-100 0 -162.5 -50.5t-62.5 -129.5q0 -75 55 -114t176 -66l152 -33q243 -56 243 -258 q0 -103 -57.5 -178.5t-143.5 -110.5t-186 -35q-272 0 -401 150z" />
<glyph unicode="t" horiz-adv-x="722" d="M43 920v98h190v321h121v-321h303v-98h-303v-684q0 -80 39 -113t121 -33q62 0 156 23v-105q-86 -26 -191 -26q-108 0 -177 51t-69 170v717h-190z" />
<glyph unicode="u" horiz-adv-x="1081" d="M143 297v723h121v-668q0 -137 62.5 -203.5t173.5 -66.5q126 0 219.5 91.5t93.5 236.5v610h119v-1020h-115v195h-4q-52 -107 -146.5 -163.5t-205.5 -56.5q-153 0 -235.5 90.5t-82.5 231.5z" />
<glyph unicode="v" horiz-adv-x="954" d="M45 1020h129l301 -873h2l311 873h121l-374 -1024h-121z" />
<glyph unicode="w" horiz-adv-x="1523" d="M51 1020h127l256 -870h2l271 870h116l260 -868h2l265 868h125l-330 -1024h-121l-260 868h-4l-268 -868h-121z" />
<glyph unicode="x" horiz-adv-x="935" d="M37 0l360 532l-329 488h139l264 -399l264 399h137l-331 -485l358 -535h-137l-295 440l-293 -440h-137z" />
<glyph unicode="y" horiz-adv-x="972" d="M43 -301q66 -16 129 -16q67 0 116 37t74 104l76 199l-387 997h131l316 -846h2l303 846h121l-447 -1208q-23 -68 -57 -115.5t-76.5 -72t-84.5 -34.5t-91 -10q-59 0 -125 14v105z" />
<glyph unicode="z" horiz-adv-x="915" d="M78 0v88l596 834h-574v98h727v-92l-598 -830h607v-98h-758z" />
<glyph unicode="{" horiz-adv-x="661" d="M111 582v84q52 9 71 30t19 64v559q0 69 35.5 105t95.5 36h250v-80h-236q-37 0 -37 -43v-563q0 -108 -92 -145v-8q49 -21 70.5 -54t21.5 -96v-725q0 -24 9 -33.5t28 -9.5h236v-80h-250q-60 0 -95.5 36t-35.5 105v709q0 53 -21 78t-69 31z" />
<glyph unicode="|" horiz-adv-x="665" d="M283 -109v1594h100v-1594h-100z" />
<glyph unicode="}" horiz-adv-x="661" d="M80 -297h235q39 0 39 43v725q0 63 20.5 96t69.5 54v8q-90 36 -90 145v563q0 43 -39 43h-235v80h250q60 0 95.5 -36t35.5 -105v-559q0 -43 19 -64t71 -30v-84q-48 -6 -69 -31t-21 -78v-709q0 -69 -35.5 -105t-95.5 -36h-250v80z" />
<glyph unicode="~" horiz-adv-x="1155" d="M74 563q13 78 57.5 128t116.5 50q56 0 328.5 -38.5t330.5 -38.5q42 0 63.5 25.5t39.5 76.5l69 -16q-16 -82 -60 -132.5t-112 -50.5q-59 0 -335.5 40t-327.5 40q-23 0 -38.5 -6.5t-27 -24.5t-16 -28t-15.5 -39z" />
<glyph unicode="&#xa1;" horiz-adv-x="567" d="M217 94l25 606h82l22 -606v-461h-129v461zM217 879v217h133v-217h-133z" />
<glyph unicode="&#xa2;" horiz-adv-x="1069" d="M154 438v283q0 176 94 280.5t258 116.5v215h102v-217q153 -13 236.5 -97.5t83.5 -215.5v-43h-113v47q0 82 -66.5 148.5t-195.5 66.5q-136 0 -209.5 -84.5t-73.5 -218.5v-277q0 -135 70 -215t213 -80q68 0 120.5 20t82 52.5t44.5 69t15 73.5v48h113v-43q0 -133 -84 -218.5 t-236 -97.5v-213h-102v213q-169 9 -260.5 109t-91.5 278z" />
<glyph unicode="&#xa3;" horiz-adv-x="1175" d="M123 0v106h170v592h-156v84h156v320q0 102 32.5 179t88.5 120.5t124 64.5t148 21q168 0 265.5 -86.5t97.5 -245.5v-53h-123v65q0 105 -69 160t-181 55q-114 0 -187 -66t-73 -198v-336h454v-84h-454v-592h669l-28 -106h-934z" />
<glyph unicode="&#xa4;" horiz-adv-x="802" d="M82 461l82 84q-55 76 -55 172q0 89 55 166q-5 4 -22.5 21.5t-38 38.5t-21.5 22l68 67l79 -80q82 56 170 56q98 0 172 -56l80 80l70 -67l-82 -80q57 -79 57 -172q0 -89 -59 -170l82 -82l-68 -68l-82 82q-74 -53 -166 -53q-95 0 -172 53l-81 -82zM211 711q0 -81 52.5 -140 t137.5 -59q90 0 140.5 56t50.5 149q0 88 -53.5 145.5t-135.5 57.5q-91 0 -141.5 -57t-50.5 -152z" />
<glyph unicode="&#xa5;" horiz-adv-x="1183" d="M57 1460h142l389 -696l389 696h139l-461 -798h449v-87h-457v-575h-123v575h-450v87h442z" />
<glyph unicode="&#xa6;" horiz-adv-x="915" d="M416 -102v749h84v-749h-84zM416 791v671h84v-671h-84z" />
<glyph unicode="&#xa7;" horiz-adv-x="1171" d="M197 100v60h102v-37q0 -103 82.5 -158t218.5 -55q132 0 212.5 58t80.5 153q0 36 -12 64.5t-28 46.5t-44.5 34t-49.5 24t-56 20q-10 3 -15 5l-199 62q-258 79 -258 272q0 80 47.5 153t145.5 120q-104 47 -148.5 104t-44.5 145q0 124 96.5 206.5t280.5 82.5q177 0 275 -75 t98 -209v-52h-102v47q0 90 -72.5 143.5t-200.5 53.5q-119 0 -191.5 -48.5t-72.5 -143.5q0 -68 49 -110.5t129 -70.5q31 -11 209 -82q57 -20 98 -40.5t82.5 -52t63.5 -75.5t22 -98q0 -182 -192 -266q204 -71 201 -248q0 -139 -111.5 -228t-300.5 -89q-58 0 -112 9t-106.5 30 t-91 52.5t-62 81t-23.5 111.5zM344 657q0 -36 17 -67.5t46 -53t58 -35.5t61 -24l168 -53q91 27 142 81t51 128q0 65 -49.5 105t-126.5 69l-187 65q-74 -26 -127 -83t-53 -132z" />
<glyph unicode="&#xa8;" horiz-adv-x="870" d="M182 1190v194h119v-194h-119zM571 1190v194h119v-194h-119z" />
<glyph unicode="&#xa9;" horiz-adv-x="1904" d="M129 711q0 171 60.5 323.5t166.5 265t260 178.5t332 66q149 0 280.5 -42.5t231 -119t171 -180t108.5 -229t37 -262.5t-36 -263t-107 -231t-170 -182.5t-231 -120.5t-284 -43q-191 0 -346 63t-258.5 175t-159 266t-55.5 336zM215 711q0 -179 57 -326t157 -243.5 t235 -148.5t292 -52q153 0 288 55t234 153.5t156.5 244t57.5 317.5q0 178 -61 324.5t-164 241t-236.5 145.5t-282.5 51q-150 0 -283.5 -53.5t-233.5 -149.5t-158 -241t-58 -318zM549 551v293q0 190 109 299.5t294 109.5q183 0 285 -88.5t102 -236.5v-49h-108v51 q0 41 -14 78.5t-44 72t-86 55.5t-131 21q-76 0 -133 -25.5t-90.5 -70t-50 -100.5t-16.5 -123v-285q0 -143 69 -227t219 -84q75 0 131.5 21.5t86.5 57t44.5 72t14.5 74.5v53h108v-45q0 -149 -102.5 -238.5t-284.5 -89.5q-192 0 -297.5 104t-105.5 300z" />
<glyph unicode="&#xaa;" horiz-adv-x="786" d="M123 963q0 51 20 90.5t50 61.5t70.5 36t74.5 18.5t70 4.5h147v94q0 70 -41.5 105.5t-112.5 35.5q-66 0 -112.5 -30.5t-46.5 -90.5v-24h-88v24q0 95 74 143t184 48q104 0 172.5 -49t68.5 -148v-330q0 -100 6 -159h-92l-6 102q-38 -63 -97.5 -91t-121.5 -28q-91 0 -155 49 t-64 138zM156 582v88h503v-88h-503zM221 975q0 -60 42.5 -92.5t103.5 -32.5q76 0 131 46t55 124v90h-141q-39 0 -68.5 -4.5t-59.5 -18t-46.5 -42t-16.5 -70.5z" />
<glyph unicode="&#xab;" horiz-adv-x="1130" d="M109 549l383 381l61 -58l-291 -323l293 -324l-61 -55zM575 549l381 381l64 -58l-291 -323l293 -324l-64 -55z" />
<glyph unicode="&#xac;" horiz-adv-x="1239" d="M88 578v84h1026v-500h-94v416h-932z" />
<glyph unicode="&#xad;" horiz-adv-x="727" d="M100 526v109h527v-109h-527z" />
<glyph unicode="&#xae;" horiz-adv-x="1046" d="M106 1077q0 187 121.5 310.5t309.5 123.5q194 0 314 -122t120 -312q0 -181 -121.5 -306.5t-312.5 -125.5q-195 0 -313 124.5t-118 307.5zM170 1077q0 -112 53 -198.5t135.5 -130t178.5 -43.5q148 0 258 103t110 269q0 172 -107 276.5t-261 104.5q-156 0 -261.5 -104 t-105.5 -277zM373 821v522h192q80 0 130 -42t50 -113q0 -59 -34.5 -99.5t-98.5 -52.5q13 -18 73 -103.5t81 -111.5h-76l-149 209h-99v-209h-69zM442 1083h107q125 0 125 103q0 47 -34 73.5t-93 26.5h-105v-203z" />
<glyph unicode="&#xaf;" horiz-adv-x="825" d="M150 1235v102h524v-102h-524z" />
<glyph unicode="&#xb0;" horiz-adv-x="741" d="M152 1268q0 91 62.5 156t154.5 65q94 0 158.5 -64.5t64.5 -154.5t-65 -152.5t-158 -62.5t-155 61.5t-62 151.5zM217 1268q0 -64 44.5 -109t107.5 -45q66 0 111.5 44.5t45.5 109.5t-45 112t-112 47q-63 0 -107.5 -46.5t-44.5 -112.5z" />
<glyph unicode="&#xb1;" horiz-adv-x="1155" d="M82 766v84h453v453h88v-453h448v-84h-448v-455h-88v455h-453zM88 39v86h977v-86h-977z" />
<glyph unicode="&#xb2;" horiz-adv-x="702" d="M102 1376v33q0 97 67.5 150t178.5 53q115 0 176.5 -60t61.5 -159q0 -104 -53 -193t-158 -205l-127 -133v-4h356v-80h-487v64l231 256q137 156 137 291v4q0 63 -37 102t-110 39q-65 0 -105 -34t-40 -93v-31h-91z" />
<glyph unicode="&#xb3;" horiz-adv-x="708" d="M94 940v35h92v-27q0 -58 47.5 -88.5t116.5 -30.5t116.5 44t47.5 118q0 38 -13.5 68t-33 47t-44 27.5t-44.5 14t-37 3.5h-84v72h84q70 0 111 39.5t41 113.5q0 73 -43 109.5t-105 36.5q-66 0 -109.5 -32t-43.5 -95v-23h-91v31q0 89 67 142.5t181 53.5q61 0 108 -18.5 t74 -49t40.5 -66t13.5 -74.5q0 -70 -32.5 -124t-102.5 -73v-2q71 -18 117 -71.5t46 -129.5q0 -112 -77.5 -175.5t-192.5 -63.5q-121 0 -185.5 54t-64.5 134z" />
<glyph unicode="&#xb4;" horiz-adv-x="608" d="M168 1182l203 319h141l-244 -319h-100z" />
<glyph unicode="&#xb5;" horiz-adv-x="1044" d="M152 -365v1397h133v-729q0 -102 60 -155.5t157 -53.5q99 0 177.5 80t78.5 195v663h131v-739q0 -55 22 -96t70 -54v-149q-87 18 -137 70.5t-60 119.5q-42 -100 -117 -154.5t-180 -54.5q-76 0 -134 33t-89 92l-8 -2l37 -454z" />
<glyph unicode="&#xb6;" horiz-adv-x="1271" d="M152 967q0 126 49 238t142 183.5t210 71.5h602v-82h-166v-1562h-86v1562h-280v-1562h-84v665q-101 5 -177.5 46.5t-121 110t-66.5 151t-22 178.5z" />
<glyph unicode="&#xb7;" horiz-adv-x="428" d="M147 760v217h134v-217h-134z" />
<glyph unicode="&#xb8;" horiz-adv-x="575" d="M57 -301q43 -17 100 -28t95 -11q70 0 105.5 19t35.5 69q0 37 -41.5 60t-126.5 24h-45l35 197h66l-25 -129q107 0 171.5 -36t64.5 -114q0 -74 -60.5 -123t-173.5 -49q-111 0 -201 39v82z" />
<glyph unicode="&#xb9;" horiz-adv-x="634" d="M88 778v70h197v655l-183 -33l-6 68l238 53h47v-743h182v-70h-475z" />
<glyph unicode="&#xba;" horiz-adv-x="790" d="M129 1038v168q0 129 72 198t194 69q128 0 198.5 -68t70.5 -199v-168q0 -127 -73.5 -194.5t-195.5 -67.5q-127 0 -196.5 66t-69.5 196zM145 582v88h504v-88h-504zM227 1038q0 -186 168 -186q170 0 170 190v168q0 185 -168 185q-88 0 -129 -51t-41 -138v-168z" />
<glyph unicode="&#xbb;" horiz-adv-x="1118" d="M111 225l292 326l-292 321l63 58l381 -379l-383 -381zM575 225l295 326l-292 321l63 58l381 -379l-383 -381z" />
<glyph unicode="&#xbc;" horiz-adv-x="1679" d="M88 647v70h197v655l-183 -33l-6 68l238 53h47v-743h182v-70h-475zM381 -4l805 1466h86l-803 -1466h-88zM985 219v74l332 524h108l-340 -522h261v178l92 62v-240h112v-76h-112v-219h-92v219h-361z" />
<glyph unicode="&#xbd;" horiz-adv-x="1679" d="M88 647v70h197v655l-183 -33l-6 68l238 53h47v-743h182v-70h-475zM381 -4l805 1466h86l-803 -1466h-88zM1032 598v33q0 97 67.5 150t178.5 53q115 0 176.5 -60.5t61.5 -159.5q0 -104 -53 -192.5t-158 -204.5l-127 -133v-4h356v-80h-487v63l231 256q137 156 137 291v4 q0 64 -37 103t-110 39q-66 0 -106 -34t-40 -93v-31h-90z" />
<glyph unicode="&#xbe;" horiz-adv-x="1679" d="M94 809v35h92v-27q0 -58 47.5 -88.5t116.5 -30.5t116.5 44t47.5 118q0 38 -13.5 68t-33 47t-44 27.5t-44.5 14t-37 3.5h-84v72h84q70 0 111 39.5t41 113.5q0 73 -43 109.5t-105 36.5q-66 0 -109.5 -32t-43.5 -95v-23h-91v31q0 89 67 142.5t181 53.5q61 0 108 -18.5 t74 -49t40.5 -66t13.5 -74.5q0 -70 -32.5 -124t-102.5 -73v-2q71 -18 117 -71.5t46 -129.5q0 -112 -77.5 -175.5t-192.5 -63.5q-121 0 -185.5 54t-64.5 134zM395 -4l805 1466h86l-803 -1466h-88zM985 219v74l332 524h108l-340 -522h261v178l92 62v-240h112v-76h-112v-219 h-92v219h-361z" />
<glyph unicode="&#xbf;" horiz-adv-x="1064" d="M137 -35q-1 53 13 102t33 86t52.5 78.5t60 68t67.5 66.5q13 13 20 19q60 54 93.5 107t37.5 122v93h115v-95q-7 -91 -45.5 -153t-116.5 -140q-7 -7 -30.5 -30t-31.5 -31.5t-28 -29.5t-28 -31.5l-24 -31.5t-22.5 -34.5t-17 -34.5t-14.5 -39t-7.5 -40.5t-3.5 -45.5 q0 -127 76 -193.5t205 -66.5q39 0 77 7t76 25t66.5 44.5t46.5 69t18 94.5v63h115v-55q0 -87 -33.5 -155t-91 -109.5t-130.5 -62.5t-157 -21q-181 0 -286 92t-105 262zM508 879v217h133v-217h-133z" />
<glyph unicode="&#xc0;" horiz-adv-x="1335" d="M63 0l547 1464h123l537 -1464h-135l-164 461h-611l-167 -461h-130zM391 1931h139l203 -319h-100zM397 569h537l-264 742h-2z" />
<glyph unicode="&#xc1;" horiz-adv-x="1335" d="M63 0l547 1464h123l537 -1464h-135l-164 461h-611l-167 -461h-130zM397 569h537l-264 742h-2zM631 1618l203 319h141l-244 -319h-100z" />
<glyph unicode="&#xc2;" horiz-adv-x="1335" d="M63 0l547 1464h123l537 -1464h-135l-164 461h-611l-167 -461h-130zM397 569h537l-264 742h-2zM422 1612l192 317h117l184 -317h-114l-127 237l-139 -237h-113z" />
<glyph unicode="&#xc3;" horiz-adv-x="1335" d="M63 0l547 1464h123l537 -1464h-135l-164 461h-611l-167 -461h-130zM324 1634q13 81 61 133t123 52q58 0 158.5 -38t150.5 -38q43 0 65.5 25t35.5 73l81 -16q-18 -85 -65.5 -135t-116.5 -50q-56 0 -159.5 38t-155.5 38q-38 0 -58 -24t-38 -72zM397 569h537l-264 742h-2z " />
<glyph unicode="&#xc4;" horiz-adv-x="1335" d="M63 0l547 1464h123l537 -1464h-135l-164 461h-611l-167 -461h-130zM397 569h537l-264 742h-2zM412 1614v194h118v-194h-118zM801 1614v194h119v-194h-119z" />
<glyph unicode="&#xc5;" horiz-adv-x="1335" d="M63 0l547 1464h123l537 -1464h-135l-164 461h-611l-167 -461h-130zM397 569h537l-264 742h-2zM496 1763q0 74 49.5 127.5t124.5 53.5q87 0 135.5 -48t48.5 -124q0 -77 -51.5 -130t-128.5 -53q-86 0 -132 50.5t-46 123.5zM561 1763q0 -55 33.5 -85.5t79.5 -30.5 q47 0 80.5 32t33.5 88q0 55 -32 87t-86 32q-48 0 -78.5 -34t-30.5 -89z" />
<glyph unicode="&#xc6;" horiz-adv-x="1990" d="M47 0l838 1462h985v-114h-783v-535h650v-113h-650v-585h787v-115h-916v432h-526l-248 -432h-137zM487 543h471v817z" />
<glyph unicode="&#xc7;" horiz-adv-x="1294" d="M131 457v522q0 224 153.5 367t391.5 143q222 0 366 -118.5t144 -305.5v-82h-125v61q0 150 -105 239t-286 89q-180 0 -295 -108.5t-115 -286.5v-500q0 -177 115.5 -283t304.5 -106q178 0 279.5 89.5t101.5 240.5v35h125v-58q0 -191 -138 -305t-360 -117l-14 -73 q107 0 171 -35.5t64 -114.5q0 -74 -60 -123t-173 -49q-111 0 -201 39v82q43 -17 100 -28t95 -11q70 0 105.5 19t35.5 69q0 37 -41.5 60t-126.5 24h-45l25 143q-143 10 -252.5 66.5t-174.5 163.5t-65 252z" />
<glyph unicode="&#xc8;" horiz-adv-x="1198" d="M166 0v1460h911v-114h-782v-533h647v-113h-647v-585h786v-115h-915zM360 1939h140l202 -319h-100z" />
<glyph unicode="&#xc9;" horiz-adv-x="1198" d="M166 0v1460h911v-114h-782v-533h647v-113h-647v-585h786v-115h-915zM518 1616l203 319h141l-244 -319h-100z" />
<glyph unicode="&#xca;" horiz-adv-x="1198" d="M166 0v1460h911v-114h-782v-533h647v-113h-647v-585h786v-115h-915zM367 1604l192 317h117l184 -317h-115l-127 237l-139 -237h-112z" />
<glyph unicode="&#xcb;" horiz-adv-x="1198" d="M166 0v1460h911v-114h-782v-533h647v-113h-647v-585h786v-115h-915zM381 1624v195h119v-195h-119zM770 1624v195h119v-195h-119z" />
<glyph unicode="&#xcc;" horiz-adv-x="460" d="M-66 1931h140l202 -319h-100zM166 0v1460h129v-1460h-129z" />
<glyph unicode="&#xcd;" horiz-adv-x="460" d="M166 0v1460h129v-1460h-129zM186 1612l203 319h141l-243 -319h-101z" />
<glyph unicode="&#xce;" horiz-adv-x="460" d="M-16 1608l192 317h117l184 -317h-115l-126 237l-140 -237h-112zM166 0v1460h129v-1460h-129z" />
<glyph unicode="&#xcf;" horiz-adv-x="460" d="M-25 1620v195h119v-195h-119zM166 0v1460h129v-1460h-129zM365 1620v195h118v-195h-118z" />
<glyph unicode="&#xd0;" horiz-adv-x="1386" d="M61 715v92h152v653h535q227 0 367 -126t140 -351v-494q0 -225 -143 -357t-364 -132h-535v715h-152zM342 115h397q181 0 284 103.5t103 262.5v498q0 164 -102 265.5t-289 101.5h-393v-539h449v-92h-449v-600z" />
<glyph unicode="&#xd1;" horiz-adv-x="1382" d="M166 0v1462h133l793 -1237h4v1237h123v-1462h-127l-801 1255h-4v-1255h-121zM362 1632q13 81 61.5 133t123.5 52q58 0 158.5 -38t150.5 -38q42 0 64 25t36 73l82 -16q-18 -85 -65.5 -135t-116.5 -50q-56 0 -159.5 38t-155.5 38q-38 0 -59 -24t-38 -72z" />
<glyph unicode="&#xd2;" d="M131 457v508q0 159 73 279.5t196 182.5t276 62q156 0 279 -57.5t195.5 -171t72.5 -267.5v-495q0 -159 -72.5 -279.5t-195 -183t-275.5 -62.5q-115 0 -214 31.5t-174 91t-118 152.5t-43 209zM260 477q0 -178 115.5 -283.5t304.5 -105.5q180 0 297 107t117 290v510 q0 175 -115 276t-309 101q-181 0 -295.5 -111.5t-114.5 -297.5v-486zM414 1927h139l203 -319h-101z" />
<glyph unicode="&#xd3;" d="M131 457v508q0 159 73 279.5t196 182.5t276 62q156 0 279 -57.5t195.5 -171t72.5 -267.5v-495q0 -159 -72.5 -279.5t-195 -183t-275.5 -62.5q-115 0 -214 31.5t-174 91t-118 152.5t-43 209zM260 477q0 -178 115.5 -283.5t304.5 -105.5q180 0 297 107t117 290v510 q0 175 -115 276t-309 101q-181 0 -295.5 -111.5t-114.5 -297.5v-486zM625 1616l202 319h142l-244 -319h-100z" />
<glyph unicode="&#xd4;" d="M131 457v508q0 159 73 279.5t196 182.5t276 62q156 0 279 -57.5t195.5 -171t72.5 -267.5v-495q0 -159 -72.5 -279.5t-195 -183t-275.5 -62.5q-115 0 -214 31.5t-174 91t-118 152.5t-43 209zM260 477q0 -178 115.5 -283.5t304.5 -105.5q180 0 297 107t117 290v510 q0 175 -115 276t-309 101q-181 0 -295.5 -111.5t-114.5 -297.5v-486zM430 1614l193 317h116l185 -317h-115l-127 237l-139 -237h-113z" />
<glyph unicode="&#xd5;" d="M131 457v508q0 159 73 279.5t196 182.5t276 62q156 0 279 -57.5t195.5 -171t72.5 -267.5v-495q0 -159 -72.5 -279.5t-195 -183t-275.5 -62.5q-115 0 -214 31.5t-174 91t-118 152.5t-43 209zM260 477q0 -178 115.5 -283.5t304.5 -105.5q180 0 297 107t117 290v510 q0 175 -115 276t-309 101q-181 0 -295.5 -111.5t-114.5 -297.5v-486zM332 1636q13 81 61 133t123 52q58 0 158.5 -38t150.5 -38q43 0 65.5 25t35.5 73l82 -16q-18 -85 -66 -135t-117 -50q-56 0 -159.5 38t-155.5 38q-38 0 -58 -24t-38 -72z" />
<glyph unicode="&#xd6;" d="M131 457v508q0 159 73 279.5t196 182.5t276 62q156 0 279 -57.5t195.5 -171t72.5 -267.5v-495q0 -159 -72.5 -279.5t-195 -183t-275.5 -62.5q-115 0 -214 31.5t-174 91t-118 152.5t-43 209zM260 477q0 -178 115.5 -283.5t304.5 -105.5q180 0 297 107t117 290v510 q0 175 -115 276t-309 101q-181 0 -295.5 -111.5t-114.5 -297.5v-486zM422 1616v194h119v-194h-119zM811 1616v194h119v-194h-119z" />
<glyph unicode="&#xd7;" horiz-adv-x="1146" d="M137 272l377 379l-377 377l62 64l374 -379l373 377l62 -62l-373 -377l379 -370l-64 -64l-379 373l-374 -379z" />
<glyph unicode="&#xd8;" d="M131 457v508q0 159 73 279.5t196 182.5t276 62q213 0 360 -107l88 148l70 -41l-96 -162q125 -131 125 -334v-495q0 -159 -72.5 -279.5t-195 -183t-275.5 -62.5q-197 0 -342 88l-90 -151l-70 43l94 158q-141 131 -141 346zM260 477q0 -153 82 -250l631 1049 q-113 96 -303 96q-181 0 -295.5 -111.5t-114.5 -297.5v-486zM403 170q111 -82 277 -82q180 0 297 107t117 290v510q0 127 -64 219z" />
<glyph unicode="&#xd9;" horiz-adv-x="1368" d="M154 467v993h129v-964q0 -105 31.5 -185t87.5 -127t127.5 -70.5t156.5 -23.5q189 0 297 104.5t102 290.5v975h127v-985q3 -232 -143 -366t-389 -134q-81 0 -155.5 17t-142.5 55t-118.5 94t-80 140t-29.5 186zM432 1931h139l203 -319h-100z" />
<glyph unicode="&#xda;" horiz-adv-x="1368" d="M154 467v993h129v-964q0 -105 31.5 -185t87.5 -127t127.5 -70.5t156.5 -23.5q189 0 297 104.5t102 290.5v975h127v-985q3 -232 -143 -366t-389 -134q-81 0 -155.5 17t-142.5 55t-118.5 94t-80 140t-29.5 186zM641 1616l203 319h141l-244 -319h-100z" />
<glyph unicode="&#xdb;" horiz-adv-x="1368" d="M154 467v993h129v-964q0 -105 31.5 -185t87.5 -127t127.5 -70.5t156.5 -23.5q189 0 297 104.5t102 290.5v975h127v-985q3 -232 -143 -366t-389 -134q-81 0 -155.5 17t-142.5 55t-118.5 94t-80 140t-29.5 186zM438 1604l193 317h117l184 -317h-115l-127 237l-139 -237 h-113z" />
<glyph unicode="&#xdc;" horiz-adv-x="1368" d="M154 467v993h129v-964q0 -105 31.5 -185t87.5 -127t127.5 -70.5t156.5 -23.5q189 0 297 104.5t102 290.5v975h127v-985q3 -232 -143 -366t-389 -134q-81 0 -155.5 17t-142.5 55t-118.5 94t-80 140t-29.5 186zM442 1618v194h119v-194h-119zM831 1618v194h119v-194h-119z " />
<glyph unicode="&#xdd;" horiz-adv-x="1173" d="M55 1460h146l389 -719l387 719h141l-469 -848v-612h-125v614zM547 1612l203 319h141l-244 -319h-100z" />
<glyph unicode="&#xde;" horiz-adv-x="1232" d="M166 0v1460h129v-266h371q212 0 337 -119t125 -313t-131 -317t-360 -123h-342v-322h-129zM295 432h309q187 0 291 83.5t104 246.5q0 146 -96.5 233.5t-251.5 87.5h-356v-651z" />
<glyph unicode="&#xdf;" horiz-adv-x="1306" d="M63 922v96h191v74q0 178 124 287.5t324 109.5t309 -98.5t109 -257.5q0 -122 -66.5 -224.5t-199.5 -152.5v-4q98 -20 171 -61t114 -95t60.5 -111t19.5 -118q0 -114 -56 -203.5t-150.5 -137t-207.5 -46.5q-153 0 -242 28l15 103q120 -27 208 -27q135 0 220.5 77t85.5 208 q0 69 -27.5 125.5t-71 91t-100 58t-111 33t-108.5 9.5v90h55q128 46 199 141t71 203q0 127 -81.5 196.5t-223.5 69.5q-76 0 -138 -25.5t-100 -66.5t-58.5 -90.5t-20.5 -99.5v-1104h-123v922h-191z" />
<glyph unicode="&#xe0;" horiz-adv-x="1032" d="M98 268q0 82 35 143.5t92.5 95.5t121 50t130.5 16h299v158q0 215 -260 215q-50 0 -95 -9.5t-83.5 -29.5t-61 -55.5t-22.5 -83.5v-33h-111v31q0 73 32 128.5t87 87t120 47t140 15.5q79 0 143.5 -15t118 -47.5t83.5 -91t30 -138.5v-496q0 -45 5 -134t9 -122h-118 q-9 79 -9 162h-4q-30 -57 -70.5 -95.5t-88 -57t-91 -25.5t-96.5 -7q-144 0 -240 77.5t-96 213.5zM219 274q0 -97 72 -149.5t176 -52.5q150 0 229.5 80.5t79.5 216.5v114h-274q-283 0 -283 -209zM236 1501h139l203 -319h-101z" />
<glyph unicode="&#xe1;" horiz-adv-x="1032" d="M98 268q0 82 35 143.5t92.5 95.5t121 50t130.5 16h299v158q0 215 -260 215q-50 0 -95 -9.5t-83.5 -29.5t-61 -55.5t-22.5 -83.5v-33h-111v31q0 73 32 128.5t87 87t120 47t140 15.5q79 0 143.5 -15t118 -47.5t83.5 -91t30 -138.5v-496q0 -45 5 -134t9 -122h-118 q-9 79 -9 162h-4q-30 -57 -70.5 -95.5t-88 -57t-91 -25.5t-96.5 -7q-144 0 -240 77.5t-96 213.5zM219 274q0 -97 72 -149.5t176 -52.5q150 0 229.5 80.5t79.5 216.5v114h-274q-283 0 -283 -209zM451 1182l202 319h142l-244 -319h-100z" />
<glyph unicode="&#xe2;" horiz-adv-x="1032" d="M98 268q0 82 35 143.5t92.5 95.5t121 50t130.5 16h299v158q0 215 -260 215q-50 0 -95 -9.5t-83.5 -29.5t-61 -55.5t-22.5 -83.5v-33h-111v31q0 73 32 128.5t87 87t120 47t140 15.5q79 0 143.5 -15t118 -47.5t83.5 -91t30 -138.5v-496q0 -45 5 -134t9 -122h-118 q-9 79 -9 162h-4q-30 -57 -70.5 -95.5t-88 -57t-91 -25.5t-96.5 -7q-144 0 -240 77.5t-96 213.5zM219 274q0 -97 72 -149.5t176 -52.5q150 0 229.5 80.5t79.5 216.5v114h-274q-283 0 -283 -209zM270 1178l193 317h117l184 -317h-115l-127 237l-139 -237h-113z" />
<glyph unicode="&#xe3;" horiz-adv-x="1032" d="M98 268q0 82 35 143.5t92.5 95.5t121 50t130.5 16h299v158q0 215 -260 215q-50 0 -95 -9.5t-83.5 -29.5t-61 -55.5t-22.5 -83.5v-33h-111v31q0 73 32 128.5t87 87t120 47t140 15.5q79 0 143.5 -15t118 -47.5t83.5 -91t30 -138.5v-496q0 -45 5 -134t9 -122h-118 q-9 79 -9 162h-4q-30 -57 -70.5 -95.5t-88 -57t-91 -25.5t-96.5 -7q-144 0 -240 77.5t-96 213.5zM172 1202q13 81 61 132.5t123 51.5q58 0 159 -37.5t151 -37.5q42 0 64 25t36 73l82 -16q-18 -85 -65.5 -135t-116.5 -50q-56 0 -160 38t-156 38q-38 0 -58 -24t-38 -72z M219 274q0 -97 72 -149.5t176 -52.5q150 0 229.5 80.5t79.5 216.5v114h-274q-283 0 -283 -209z" />
<glyph unicode="&#xe4;" horiz-adv-x="1032" d="M98 268q0 82 35 143.5t92.5 95.5t121 50t130.5 16h299v158q0 215 -260 215q-50 0 -95 -9.5t-83.5 -29.5t-61 -55.5t-22.5 -83.5v-33h-111v31q0 73 32 128.5t87 87t120 47t140 15.5q79 0 143.5 -15t118 -47.5t83.5 -91t30 -138.5v-496q0 -45 5 -134t9 -122h-118 q-9 79 -9 162h-4q-30 -57 -70.5 -95.5t-88 -57t-91 -25.5t-96.5 -7q-144 0 -240 77.5t-96 213.5zM219 274q0 -97 72 -149.5t176 -52.5q150 0 229.5 80.5t79.5 216.5v114h-274q-283 0 -283 -209zM260 1190v194h119v-194h-119zM649 1190v194h119v-194h-119z" />
<glyph unicode="&#xe5;" horiz-adv-x="1032" d="M98 268q0 82 35 143.5t92.5 95.5t121 50t130.5 16h299v158q0 215 -260 215q-50 0 -95 -9.5t-83.5 -29.5t-61 -55.5t-22.5 -83.5v-33h-111v31q0 73 32 128.5t87 87t120 47t140 15.5q79 0 143.5 -15t118 -47.5t83.5 -91t30 -138.5v-496q0 -45 5 -134t9 -122h-118 q-9 79 -9 162h-4q-30 -57 -70.5 -95.5t-88 -57t-91 -25.5t-96.5 -7q-144 0 -240 77.5t-96 213.5zM219 274q0 -97 72 -149.5t176 -52.5q150 0 229.5 80.5t79.5 216.5v114h-274q-283 0 -283 -209zM348 1329q0 74 49.5 127t124.5 53q87 0 136 -48t49 -124q0 -77 -51.5 -129.5 t-129.5 -52.5q-86 0 -132 50.5t-46 123.5zM414 1329q0 -55 33 -86t79 -31q47 0 81 32.5t34 88.5q0 55 -32.5 87t-86.5 32q-48 0 -78 -34t-30 -89z" />
<glyph unicode="&#xe6;" horiz-adv-x="1693" d="M98 268q0 82 35 143.5t92.5 95.5t121 50t130.5 16h299v158q0 215 -260 215q-50 0 -95 -9.5t-83.5 -29.5t-61 -55.5t-22.5 -83.5v-33h-111v31q0 73 32 128.5t87 87t120 47t140 15.5q81 0 146 -16.5t117 -57t75 -102.5q52 84 140.5 129t201.5 45q175 0 284 -105t109 -296 v-149h-696v-121q0 -136 83 -215.5t230 -79.5q167 0 273 131l92 -57q-127 -177 -373 -177q-144 0 -245 57.5t-144 172.5q-99 -226 -381 -226q-144 0 -240 77.5t-96 213.5zM219 274q0 -97 72 -149.5t176 -52.5q149 0 228 79.5t81 215.5v116h-274q-283 0 -283 -209zM899 578 h578v69q0 128 -72.5 211.5t-212.5 83.5q-131 0 -210.5 -88t-82.5 -215v-61z" />
<glyph unicode="&#xe7;" horiz-adv-x="976" d="M102 383v238q0 196 111 308.5t297 112.5q179 0 284 -92t105 -245v-31h-117v41q0 41 -15.5 79.5t-46.5 72.5t-85 54.5t-123 20.5q-138 0 -211.5 -87t-73.5 -226v-248q0 -141 70.5 -223t216.5 -82q69 0 122.5 20t84 54t46 72.5t15.5 80.5v35h117v-27q0 -154 -103.5 -246 t-283.5 -92q-26 0 -66 4l-14 -77q107 0 171.5 -36t64.5 -114q0 -74 -60.5 -123t-173.5 -49q-111 0 -201 39v82q43 -17 100 -28t95 -11q70 0 105.5 19t35.5 69q0 37 -41.5 60t-126.5 24h-45l27 156q-134 33 -207.5 134.5t-73.5 260.5z" />
<glyph unicode="&#xe8;" horiz-adv-x="1019" d="M102 385v221q0 205 118.5 320.5t307.5 115.5q176 0 285 -105t109 -296v-149h-695v-121q0 -136 82.5 -215.5t229.5 -79.5q166 0 272 131l90 -57q-123 -177 -371 -177q-195 0 -311.5 104t-116.5 308zM227 578h576v69q0 128 -72.5 211.5t-212.5 83.5q-134 0 -212.5 -90 t-78.5 -219v-55zM240 1501h139l203 -319h-101z" />
<glyph unicode="&#xe9;" horiz-adv-x="1019" d="M102 385v221q0 205 118.5 320.5t307.5 115.5q176 0 285 -105t109 -296v-149h-695v-121q0 -136 82.5 -215.5t229.5 -79.5q166 0 272 131l90 -57q-123 -177 -371 -177q-195 0 -311.5 104t-116.5 308zM227 578h576v69q0 128 -72.5 211.5t-212.5 83.5q-134 0 -212.5 -90 t-78.5 -219v-55zM483 1182l203 319h141l-243 -319h-101z" />
<glyph unicode="&#xea;" horiz-adv-x="1019" d="M102 385v221q0 205 118.5 320.5t307.5 115.5q176 0 285 -105t109 -296v-149h-695v-121q0 -136 82.5 -215.5t229.5 -79.5q166 0 272 131l90 -57q-123 -177 -371 -177q-195 0 -311.5 104t-116.5 308zM227 578h576v69q0 128 -72.5 211.5t-212.5 83.5q-134 0 -212.5 -90 t-78.5 -219v-55zM264 1178l193 317h116l185 -317h-115l-127 237l-139 -237h-113z" />
<glyph unicode="&#xeb;" horiz-adv-x="1019" d="M102 385v221q0 205 118.5 320.5t307.5 115.5q176 0 285 -105t109 -296v-149h-695v-121q0 -136 82.5 -215.5t229.5 -79.5q166 0 272 131l90 -57q-123 -177 -371 -177q-195 0 -311.5 104t-116.5 308zM227 578h576v69q0 128 -72.5 211.5t-212.5 83.5q-134 0 -212.5 -90 t-78.5 -219v-55zM254 1190v194h119v-194h-119zM643 1190v194h119v-194h-119z" />
<glyph unicode="&#xec;" horiz-adv-x="425" d="M-78 1501h139l203 -319h-100zM154 0v1020h118v-1020h-118z" />
<glyph unicode="&#xed;" horiz-adv-x="425" d="M154 0v1020h118v-1020h-118zM160 1182l202 319h142l-244 -319h-100z" />
<glyph unicode="&#xee;" horiz-adv-x="425" d="M-33 1178l193 317h116l185 -317h-115l-127 237l-139 -237h-113zM154 0v1020h118v-1020h-118z" />
<glyph unicode="&#xef;" horiz-adv-x="425" d="M-41 1190v194h119v-194h-119zM154 0v1020h118v-1020h-118zM348 1190v194h119v-194h-119z" />
<glyph unicode="&#xf0;" horiz-adv-x="1032" d="M104 369v262q0 189 113.5 298t294.5 115q77 6 147 -30l-149 241l-219 -61l-35 76l203 57l-94 146l114 34l92 -149l238 65l37 -73l-223 -64q28 -44 130.5 -209t116.5 -188q58 -94 58 -256v-246q0 -199 -109.5 -306.5t-300.5 -107.5q-194 0 -304 101t-110 295zM225 371 q0 -140 71.5 -218.5t221.5 -78.5q289 0 289 315v250q0 311 -275 311q-148 0 -227.5 -85.5t-79.5 -233.5v-260z" />
<glyph unicode="&#xf1;" horiz-adv-x="1085" d="M154 0v1020h114v-195h4q53 106 147.5 162.5t205.5 56.5q153 0 235 -90t82 -231v-723h-121v668q0 137 -62 203.5t-171 66.5q-127 0 -221.5 -91.5t-94.5 -236.5v-610h-118zM199 1202q13 81 61 132.5t123 51.5q58 0 158.5 -37.5t150.5 -37.5q43 0 65.5 25t35.5 73l81 -16 q-18 -85 -65.5 -135t-116.5 -50q-56 0 -159.5 38t-155.5 38q-38 0 -58 -24t-38 -72z" />
<glyph unicode="&#xf2;" horiz-adv-x="1036" d="M104 365v274q0 193 116 298t298 105q192 0 303 -105t111 -296v-264q0 -192 -113.5 -298t-296.5 -106q-192 0 -305 101.5t-113 290.5zM217 1501h139l203 -319h-100zM225 369q0 -135 75.5 -214t221.5 -79q144 0 216.5 76t72.5 223v276q0 131 -74 210t-219 79 q-142 0 -217.5 -79t-75.5 -218v-274z" />
<glyph unicode="&#xf3;" horiz-adv-x="1036" d="M104 365v274q0 193 116 298t298 105q192 0 303 -105t111 -296v-264q0 -192 -113.5 -298t-296.5 -106q-192 0 -305 101.5t-113 290.5zM225 369q0 -135 75.5 -214t221.5 -79q144 0 216.5 76t72.5 223v276q0 131 -74 210t-219 79q-142 0 -217.5 -79t-75.5 -218v-274z M446 1182l203 319h142l-244 -319h-101z" />
<glyph unicode="&#xf4;" horiz-adv-x="1036" d="M104 365v274q0 193 116 298t298 105q192 0 303 -105t111 -296v-264q0 -192 -113.5 -298t-296.5 -106q-192 0 -305 101.5t-113 290.5zM225 369q0 -135 75.5 -214t221.5 -79q144 0 216.5 76t72.5 223v276q0 131 -74 210t-219 79q-142 0 -217.5 -79t-75.5 -218v-274z M272 1178l193 317h117l184 -317h-115l-127 237l-139 -237h-113z" />
<glyph unicode="&#xf5;" horiz-adv-x="1036" d="M104 365v274q0 193 116 298t298 105q192 0 303 -105t111 -296v-264q0 -192 -113.5 -298t-296.5 -106q-192 0 -305 101.5t-113 290.5zM174 1202q13 81 61 132.5t123 51.5q58 0 159 -37.5t151 -37.5q42 0 64 25t36 73l82 -16q-18 -85 -65.5 -135t-116.5 -50q-56 0 -160 38 t-156 38q-38 0 -58 -24t-38 -72zM225 369q0 -135 75.5 -214t221.5 -79q144 0 216.5 76t72.5 223v276q0 131 -74 210t-219 79q-142 0 -217.5 -79t-75.5 -218v-274z" />
<glyph unicode="&#xf6;" horiz-adv-x="1036" d="M104 365v274q0 193 116 298t298 105q192 0 303 -105t111 -296v-264q0 -192 -113.5 -298t-296.5 -106q-192 0 -305 101.5t-113 290.5zM225 369q0 -135 75.5 -214t221.5 -79q144 0 216.5 76t72.5 223v276q0 131 -74 210t-219 79q-142 0 -217.5 -79t-75.5 -218v-274z M262 1190v194h119v-194h-119zM651 1190v194h119v-194h-119z" />
<glyph unicode="&#xf7;" horiz-adv-x="1155" d="M76 606v86h1001v-86h-1001zM512 203v198h129v-198h-129zM512 889v201h129v-201h-129z" />
<glyph unicode="&#xf8;" horiz-adv-x="1036" d="M104 365v274q0 193 116 298t298 105q138 0 236 -55l71 129l66 -35l-76 -139q117 -108 117 -301v-264q0 -192 -113.5 -298t-296.5 -106q-127 0 -217 43l-69 -127l-66 33l72 131q-138 99 -138 312zM225 369q0 -136 74 -213l401 735q-71 49 -182 49q-142 0 -217.5 -79 t-75.5 -218v-274zM358 113q64 -37 164 -37q144 0 216.5 76t72.5 223v276q0 114 -55 187z" />
<glyph unicode="&#xf9;" horiz-adv-x="1081" d="M143 297v723h121v-668q0 -137 62.5 -203.5t173.5 -66.5q126 0 219.5 91.5t93.5 236.5v610h119v-1020h-115v195h-4q-52 -107 -146.5 -163.5t-205.5 -56.5q-153 0 -235.5 90.5t-82.5 231.5zM279 1501h139l203 -319h-101z" />
<glyph unicode="&#xfa;" horiz-adv-x="1081" d="M143 297v723h121v-668q0 -137 62.5 -203.5t173.5 -66.5q126 0 219.5 91.5t93.5 236.5v610h119v-1020h-115v195h-4q-52 -107 -146.5 -163.5t-205.5 -56.5q-153 0 -235.5 90.5t-82.5 231.5zM479 1182l203 319h141l-243 -319h-101z" />
<glyph unicode="&#xfb;" horiz-adv-x="1081" d="M143 297v723h121v-668q0 -137 62.5 -203.5t173.5 -66.5q126 0 219.5 91.5t93.5 236.5v610h119v-1020h-115v195h-4q-52 -107 -146.5 -163.5t-205.5 -56.5q-153 0 -235.5 90.5t-82.5 231.5zM295 1178l192 317h117l184 -317h-114l-127 237l-139 -237h-113z" />
<glyph unicode="&#xfc;" horiz-adv-x="1081" d="M143 297v723h121v-668q0 -137 62.5 -203.5t173.5 -66.5q126 0 219.5 91.5t93.5 236.5v610h119v-1020h-115v195h-4q-52 -107 -146.5 -163.5t-205.5 -56.5q-153 0 -235.5 90.5t-82.5 231.5zM285 1190v194h118v-194h-118zM674 1190v194h119v-194h-119z" />
<glyph unicode="&#xfd;" horiz-adv-x="972" d="M43 -301q66 -16 129 -16q67 0 116 37t74 104l76 199l-387 997h131l316 -846h2l303 846h121l-447 -1208q-23 -68 -57 -115.5t-76.5 -72t-84.5 -34.5t-91 -10q-59 0 -125 14v105zM438 1182l203 319h141l-243 -319h-101z" />
<glyph unicode="&#xfe;" horiz-adv-x="1071" d="M154 -397v1859h118v-624h4q51 102 142.5 154t187.5 52q162 0 261.5 -94.5t99.5 -253.5v-336q0 -99 -32 -175.5t-86.5 -121.5t-120.5 -67.5t-140 -22.5q-104 0 -191 56t-118 153h-7v-579h-118zM272 397q0 -143 87.5 -232t211.5 -89q110 0 191.5 69.5t81.5 198.5v344 q0 109 -74.5 180.5t-200.5 71.5q-54 0 -106 -22.5t-95 -64t-69.5 -106t-26.5 -141.5v-209z" />
<glyph unicode="&#xff;" horiz-adv-x="972" d="M43 -301q66 -16 129 -16q67 0 116 37t74 104l76 199l-387 997h131l316 -846h2l303 846h121l-447 -1208q-23 -68 -57 -115.5t-76.5 -72t-84.5 -34.5t-91 -10q-59 0 -125 14v105zM250 1190v194h119v-194h-119zM639 1190v194h119v-194h-119z" />
<glyph unicode="&#x152;" horiz-adv-x="2125" d="M131 457v508q0 159 71 279.5t192 182.5t274 62q140 0 253 -49.5t175 -141.5v164h911v-114h-784v-535h649v-113h-649v-585h786v-115h-913v182q-63 -99 -174.5 -154t-249.5 -55q-115 0 -212.5 31.5t-171 91t-115.5 152.5t-42 209zM260 477q0 -178 115.5 -283.5 t304.5 -105.5q180 0 297 107t117 290v510q0 175 -115 276t-309 101q-181 0 -295.5 -111.5t-114.5 -297.5v-486z" />
<glyph unicode="&#x153;" horiz-adv-x="1728" d="M104 365v274q0 193 116 298t298 105q269 0 356 -202q51 98 145 150t218 52q176 0 284.5 -105t108.5 -296v-149h-696v-132q0 -131 84 -207.5t229 -76.5q167 0 273 131l90 -55q-126 -179 -371 -179q-130 0 -225 51t-144 150q-46 -97 -136 -149t-212 -52q-192 0 -305 101.5 t-113 290.5zM225 369q0 -135 75.5 -214t221.5 -79q141 0 215 80.5t74 224.5v270q0 131 -74 210t-219 79q-142 0 -217.5 -79t-75.5 -218v-274zM934 578h577v69q0 129 -72 212t-212 83q-134 0 -213.5 -90t-79.5 -219v-55z" />
<glyph unicode="&#x178;" horiz-adv-x="1173" d="M55 1460h146l389 -719l387 719h141l-469 -848v-612h-125v614zM332 1618v194h119v-194h-119zM721 1618v194h119v-194h-119z" />
<glyph unicode="&#x2c6;" horiz-adv-x="806" d="M158 1178l192 317h117l184 -317h-114l-127 237l-140 -237h-112z" />
<glyph unicode="&#x2dc;" horiz-adv-x="872" d="M113 1202q13 81 61 132.5t123 51.5q58 0 158.5 -37.5t150.5 -37.5q43 0 65.5 25t35.5 73l81 -16q-18 -85 -65.5 -135t-116.5 -50q-56 0 -159.5 38t-155.5 38q-38 0 -58 -24t-38 -72z" />
<glyph unicode="&#x2000;" horiz-adv-x="972" />
<glyph unicode="&#x2001;" horiz-adv-x="1944" />
<glyph unicode="&#x2002;" horiz-adv-x="972" />
<glyph unicode="&#x2003;" horiz-adv-x="1944" />
<glyph unicode="&#x2004;" horiz-adv-x="648" />
<glyph unicode="&#x2005;" horiz-adv-x="486" />
<glyph unicode="&#x2006;" horiz-adv-x="324" />
<glyph unicode="&#x2007;" horiz-adv-x="324" />
<glyph unicode="&#x2008;" horiz-adv-x="243" />
<glyph unicode="&#x2009;" horiz-adv-x="388" />
<glyph unicode="&#x200a;" horiz-adv-x="108" />
<glyph unicode="&#x2010;" horiz-adv-x="727" d="M100 526v109h527v-109h-527z" />
<glyph unicode="&#x2011;" horiz-adv-x="727" d="M100 526v109h527v-109h-527z" />
<glyph unicode="&#x2012;" horiz-adv-x="727" d="M100 526v109h527v-109h-527z" />
<glyph unicode="&#x2013;" horiz-adv-x="917" d="M0 553v88h918v-88h-918z" />
<glyph unicode="&#x2014;" horiz-adv-x="1548" d="M0 553v88h1548v-88h-1548z" />
<glyph unicode="&#x2018;" horiz-adv-x="432" d="M147 1032v213l58 225h67l-36 -223h45v-215h-134z" />
<glyph unicode="&#x2019;" horiz-adv-x="434" d="M152 1253v215h133v-211l-58 -225h-67l39 221h-47z" />
<glyph unicode="&#x201a;" horiz-adv-x="432" d="M150 2v215h133v-213l-58 -225h-67l37 223h-45z" />
<glyph unicode="&#x201c;" horiz-adv-x="718" d="M147 1032v213l58 225h67l-36 -223h45v-215h-134zM436 1032v213l60 225h65l-37 -223h45v-215h-133z" />
<glyph unicode="&#x201d;" horiz-adv-x="718" d="M150 1253v215h133v-211l-58 -225h-67l37 221h-45zM438 1253v215h133v-211l-57 -225h-68l37 221h-45z" />
<glyph unicode="&#x201e;" horiz-adv-x="718" d="M150 2v215h133v-213l-58 -225h-67l37 223h-45zM438 2v215h133v-213l-57 -225h-68l37 223h-45z" />
<glyph unicode="&#x2022;" horiz-adv-x="780" d="M197 745q0 80 56.5 136.5t137.5 56.5t138 -56.5t57 -136.5q0 -82 -56.5 -139t-138.5 -57t-138 57t-56 139z" />
<glyph unicode="&#x2026;" horiz-adv-x="1421" d="M160 0v217h133v-217h-133zM643 0v217h135v-217h-135zM1128 0v217h134v-217h-134z" />
<glyph unicode="&#x202f;" horiz-adv-x="388" />
<glyph unicode="&#x2039;" horiz-adv-x="665" d="M109 549l383 381l61 -58l-291 -323l293 -324l-61 -55z" />
<glyph unicode="&#x203a;" horiz-adv-x="665" d="M111 225l292 326l-292 321l63 58l381 -379l-383 -381z" />
<glyph unicode="&#x205f;" horiz-adv-x="486" />
<glyph unicode="&#x20ac;" horiz-adv-x="1456" d="M104 518v82h218v244h-218v80h218v65q0 220 144.5 360t377.5 140q221 0 360 -118t139 -306v-82h-124v61q0 150 -106 239t-288 89q-173 0 -273.5 -106.5t-100.5 -282.5v-59h577v-80h-577v-244h577v-82h-577v-47q0 -179 101 -281t284 -102q180 0 281.5 89.5t101.5 240.5v35 h124v-58q0 -193 -140.5 -307.5t-366.5 -114.5q-236 0 -375 125.5t-139 358.5v61h-218z" />
<glyph unicode="&#x2122;" horiz-adv-x="1331" d="M94 1399v67h481v-67h-202v-561h-74v561h-205zM666 838v628h84l184 -338l182 338h84v-628h-67l-3 505l-172 -323h-51l-174 323v-505h-67z" />
<glyph unicode="&#x25fc;" horiz-adv-x="1024" d="M0 0v1024h1024v-1024h-1024z" />
</font>
</defs>
</svg>
